Uriah Heep – Sweet Freedom




Artist: Uriah Heep
Year: 1973/1990
Genre: Rock
Notes: Discogs
Add. Notes:
Cover incl.: Yes
Encoder: FLAC
Bitrate: ~900 kBit/s (44.1 kHz/16 Bit/s)
Log & Cue incl.: Yes
Size: 328,04 MB
Password: “slam” (without ” “)


All Downloads/Hosters are compatible

Download 1
Turbobit.net
KatFile.com
Rapidgator.net
Download 2
Turbobit.net
KatFile.com
Rapidgator.net

Tracklist:

1 - Dreamer - 3:45
2 - Stealin' - 4:54
3 - One Day - 2:50
4 - Sweet Freedom - 6:39
5 - If I Had The Time - 5:46
6 - Seven Stars - 3:55
7 - Circus - 2:46
8 - Pilgrim - 7:08

EAC-Log, CUE-Sheed & NFO:

Click to open spoiler
Exact Audio Copy V1.0 beta 2 from 29. April 2011

EAC extraction logfile from 26. August 2011, 16:11

Uriah Heep / Sweet Freedom

Used drive : Optiarc DVD RW AD-7240S Adapter: 1 ID: 0

Read mode : Secure
Utilize accurate stream : Yes
Defeat audio cache : Yes
Make use of C2 pointers : No

Read offset correction : 48
Overread into Lead-In and Lead-Out : No
Fill up missing offset samples with silence : Yes
Delete leading and trailing silent blocks : No
Null samples used in CRC calculations : Yes
Used interface : Native Win32 interface for Win NT & 2000

Used output format : User Defined Encoder
Selected bitrate : 1024 kBit/s
Quality : High
Add ID3 tag : Yes
Command line compressor : C:\Program Files\Exact Audio Copy\Flac\flac.exe
Additional command line options : -6 -V -T “ARTIST=%artist%” -T “TITLE=%title%” -T “ALBUM=%albumtitle%” -T “DATE=%year%” -T “TRACKNUMBER=%tracknr%” -T “GENRE=%genre%” -T “COMMENT=%comment%” %source% -o %dest%

TOC of the extracted CD

Track | Start | Length | Start sector | End sector
———————————————————
1 | 0:00.33 | 3:45.22 | 33 | 16929
2 | 3:45.55 | 4:54.08 | 16930 | 38987
3 | 8:39.63 | 2:49.70 | 38988 | 51732
4 | 11:29.58 | 6:38.70 | 51733 | 81652
5 | 18:08.53 | 5:45.65 | 81653 | 107592
6 | 23:54.43 | 3:55.05 | 107593 | 125222
7 | 27:49.48 | 2:46.17 | 125223 | 137689
8 | 30:35.65 | 7:07.53 | 137690 | 169767

Range status and errors

Selected range

Filename E:\music\Uriah Heep\1973. Sweet Freedom\1973. Sweet Freedom (Castle CLACD)\Uriah Heep – Sweet Freedom.wav

Peak level 99.1 %
Extraction speed 3.5 X
Range quality 99.9 %
Test CRC 65DBCBB6
Copy CRC 65DBCBB6
Copy OK

No errors occurred

AccurateRip summary

Track 1 accurately ripped (confidence 2) [669344C8] (AR v2)
Track 2 accurately ripped (confidence 2) [4E4C7230] (AR v2)
Track 3 accurately ripped (confidence 2) [CFFC8F9F] (AR v2)
Track 4 accurately ripped (confidence 2) [7DFFD2F1] (AR v2)
Track 5 accurately ripped (confidence 2) [F90AEB09] (AR v2)
Track 6 accurately ripped (confidence 2) [243FBBE1] (AR v2)
Track 7 accurately ripped (confidence 2) [72ADF585] (AR v2)
Track 8 accurately ripped (confidence 2) [B681EC0C] (AR v2)

All tracks accurately ripped

End of status report

==== Log checksum CFC1AF1401DA6676EC5A6D904308F63BFBF439B2782D0AC5303667895FE601ED ====

REM GENRE Rock
REM DATE 1990
REM DISCID 5F08D708
REM COMMENT “ExactAudioCopy v1.0b2”
PERFORMER “Uriah Heep”
TITLE “Sweet Freedom”
FILE “Uriah Heep – Sweet Freedom.flac” WAVE
TRACK 01 AUDIO
TITLE “Dreamer”
PERFORMER “Uriah Heep”
INDEX 00 00:00:00
INDEX 01 00:00:33
TRACK 02 AUDIO
TITLE “Stealin'”
PERFORMER “Uriah Heep”
INDEX 00 03:42:28
INDEX 01 03:45:55
TRACK 03 AUDIO
TITLE “One Day”
PERFORMER “Uriah Heep”
INDEX 00 08:36:28
INDEX 01 08:39:63
TRACK 04 AUDIO
TITLE “Sweet Freedom”
PERFORMER “Uriah Heep”
INDEX 00 11:26:03
INDEX 01 11:29:58
TRACK 05 AUDIO
TITLE “If I Had The Time”
PERFORMER “Uriah Heep”
INDEX 00 18:05:18
INDEX 01 18:08:53
TRACK 06 AUDIO
TITLE “Seven Stars”
PERFORMER “Uriah Heep”
INDEX 00 23:50:70
INDEX 01 23:54:43
TRACK 07 AUDIO
TITLE “Circus”
PERFORMER “Uriah Heep”
INDEX 00 27:45:63
INDEX 01 27:49:48
TRACK 08 AUDIO
TITLE “Pilgrim”
PERFORMER “Uriah Heep”
INDEX 00 30:32:43
INDEX 01 30:35:65


Leave a Reply

Your email address will not be published. Required fields are marked *

This site uses Akismet to reduce spam. Learn how your comment data is processed.