Uriah Heep – Super 20




Artist: Uriah Heep
Year: 1989
Genre: Rock
Notes: Discogs
Add. Notes:
Cover incl.: Yes
Encoder: FLAC
Bitrate: ~800 kBit/s (44.1 kHz/16 Bit/s)
Log & Cue incl.: Yes
Size: 523 MB
Password: “slam” (without ” “)


All Downloads/Hosters are compatible

Download 1
KatFile.com
Rapidgator.net
Turbobit.net
FileFactory.com
Download 2
KatFile.com
Rapidgator.net
Turbobit.net
FileFactory.com

Tracklist:

1 - Lady In Black - 3:39
2 - Easy Livin' - 2:36
3 - Free Me - 3:35
4 - The Wizard - 2:59
5 - Sympathy - 4:50
6 - Spider Woman - 2:25
7 - Stealin' - 3:17
8 - Something Or Nothing - 2:56
9 - Look At Yourself - 5:07
10 - Woman Of The World - 3:10
11 - Who Needs Me - 3:40
12 - Love Or Nothing - 3:02
13 - Come Back To Me - 4:22
14 - Gypsy - 2:45
15 - Bird Of Prey - 4:05
16 - Return To Fantasy - 5:52
17 - Sweet Lorraine - 4:13
18 - Shady Lady - 4:46
19 - Flyin' High - 3:18
20 - Firefly - 6:18

EAC-Log, CUE-Sheed & NFO:

Click to open spoiler
Exact Audio Copy V1.0 beta 3 from 29. August 2011

EAC extraction logfile from 28. January 2015, 0:42

Uriah Heep / Super 20 (260 159)

Used drive : SONY BD RW BDX-S600U Adapter: 2 ID: 1

Read mode : Secure
Utilize accurate stream : Yes
Defeat audio cache : Yes
Make use of C2 pointers : No

Read offset correction : 48
Overread into Lead-In and Lead-Out : No
Fill up missing offset samples with silence : Yes
Delete leading and trailing silent blocks : No
Null samples used in CRC calculations : Yes
Used interface : Native Win32 interface for Win NT & 2000

Used output format : User Defined Encoder
Selected bitrate : 128 kBit/s
Quality : High
Add ID3 tag : No
Command line compressor : C:\Program Files (x86)\Exact Audio Copy\Flac\flac.exe
Additional command line options : -V -8 -T “Date=%year%” -T “Genre=%genre%” %source%

TOC of the extracted CD

Track | Start | Length | Start sector | End sector
———————————————————
1 | 0:00.33 | 3:42.37 | 33 | 16719
2 | 3:42.70 | 2:37.45 | 16720 | 28539
3 | 6:20.40 | 3:34.13 | 28540 | 44602
4 | 9:54.53 | 3:00.67 | 44603 | 58169
5 | 12:55.45 | 4:43.43 | 58170 | 79437
6 | 17:39.13 | 2:28.15 | 79438 | 90552
7 | 20:07.28 | 3:19.20 | 90553 | 105497
8 | 23:26.48 | 2:57.42 | 105498 | 118814
9 | 26:24.15 | 5:10.15 | 118815 | 142079
10 | 31:34.30 | 3:10.20 | 142080 | 156349
11 | 34:44.50 | 3:39.23 | 156350 | 172797
12 | 38:23.73 | 2:59.15 | 172798 | 186237
13 | 41:23.13 | 4:20.17 | 186238 | 205754
14 | 45:43.30 | 2:57.25 | 205755 | 219054
15 | 48:40.55 | 4:13.30 | 219055 | 238059
16 | 52:54.10 | 5:51.38 | 238060 | 264422
17 | 58:45.48 | 4:15.57 | 264423 | 283604
18 | 63:01.30 | 4:48.58 | 283605 | 305262
19 | 67:50.13 | 3:20.25 | 305263 | 320287
20 | 71:10.38 | 6:18.30 | 320288 | 348667

Range status and errors

Selected range

Filename D:\Uriah Heep – Discography\Compilations\1989. Super 20\1989. Super 20 (Bronze Rec.,Arola BMG 260 159,Germany)\Uriah Heep – Super 20 (260 159).wav

Peak level 100.0 %
Extraction speed 7.0 X
Range quality 100.0 %
Test CRC 3030D19D
Copy CRC 3030D19D
Copy OK

No errors occurred

AccurateRip summary

Track 1 accurately ripped (confidence 6) [04E26C72] (AR v2)
Track 2 accurately ripped (confidence 6) [5E970700] (AR v2)
Track 3 accurately ripped (confidence 6) [736ACD57] (AR v2)
Track 4 accurately ripped (confidence 6) [0F86401E] (AR v2)
Track 5 accurately ripped (confidence 6) [64874575] (AR v2)
Track 6 accurately ripped (confidence 6) [EB86A1CA] (AR v2)
Track 7 accurately ripped (confidence 6) [5FA5C65F] (AR v2)
Track 8 accurately ripped (confidence 6) [9E7DEAD7] (AR v2)
Track 9 accurately ripped (confidence 6) [B2C1E9FA] (AR v2)
Track 10 accurately ripped (confidence 6) [536EED15] (AR v2)
Track 11 accurately ripped (confidence 6) [1D74330F] (AR v2)
Track 12 accurately ripped (confidence 6) [586671C9] (AR v2)
Track 13 accurately ripped (confidence 6) [73B8DC5D] (AR v2)
Track 14 accurately ripped (confidence 6) [8A20233A] (AR v2)
Track 15 accurately ripped (confidence 6) [D43BE61A] (AR v2)
Track 16 accurately ripped (confidence 6) [7DC9813E] (AR v2)
Track 17 accurately ripped (confidence 6) [BC11EF90] (AR v2)
Track 18 accurately ripped (confidence 6) [4DE0CBF1] (AR v2)
Track 19 accurately ripped (confidence 6) [39D842ED] (AR v2)
Track 20 accurately ripped (confidence 6) [EE96318D] (AR v2)

All tracks accurately ripped

End of status report

—- CUETools DB Plugin V2.1.4

[CTDB TOCID: OmuVD6R7r_.UKvZwf7FxQTrPp5g-] found
Submit result: OmuVD6R7r_.UKvZwf7FxQTrPp5g- has been confirmed
Track | CTDB Status
1 | (4/4) Accurately ripped
2 | (4/4) Accurately ripped
3 | (4/4) Accurately ripped
4 | (4/4) Accurately ripped
5 | (4/4) Accurately ripped
6 | (4/4) Accurately ripped
7 | (4/4) Accurately ripped
8 | (4/4) Accurately ripped
9 | (4/4) Accurately ripped
10 | (4/4) Accurately ripped
11 | (4/4) Accurately ripped
12 | (4/4) Accurately ripped
13 | (4/4) Accurately ripped
14 | (4/4) Accurately ripped
15 | (4/4) Accurately ripped
16 | (4/4) Accurately ripped
17 | (4/4) Accurately ripped
18 | (4/4) Accurately ripped
19 | (4/4) Accurately ripped
20 | (3/4) Accurately ripped

==== Log checksum 362CE7ED4A96620F916BA632266CEA800D9F57BD255FC5234167AF3E717CADAB ====

REM GENRE Rock
REM DATE 1989
REM DISCID 2F122814
REM COMMENT “ExactAudioCopy v1.0b3”
CATALOG 0000000000000
PERFORMER “Uriah Heep”
TITLE “Super 20 (260 159)”
FILE “Uriah Heep – Super 20 (260 159).flac” WAVE
TRACK 01 AUDIO
TITLE “Lady In Black”
PERFORMER “Uriah Heep”
INDEX 00 00:00:00
INDEX 01 00:00:33
TRACK 02 AUDIO
TITLE “Easy Livin'”
PERFORMER “Uriah Heep”
INDEX 00 03:41:23
INDEX 01 03:42:70
TRACK 03 AUDIO
TITLE “Free Me”
PERFORMER “Uriah Heep”
INDEX 00 06:18:55
INDEX 01 06:20:40
TRACK 04 AUDIO
TITLE “The Wizard”
PERFORMER “Uriah Heep”
INDEX 00 09:53:25
INDEX 01 09:54:53
TRACK 05 AUDIO
TITLE “Sympathy”
PERFORMER “Uriah Heep”
INDEX 00 12:54:28
INDEX 01 12:55:45
TRACK 06 AUDIO
TITLE “Spider Woman”
PERFORMER “Uriah Heep”
INDEX 00 17:38:08
INDEX 01 17:39:13
TRACK 07 AUDIO
TITLE “Stealin'”
PERFORMER “Uriah Heep”
INDEX 00 20:05:20
INDEX 01 20:07:28
TRACK 08 AUDIO
TITLE “Something Or Nothing”
PERFORMER “Uriah Heep”
INDEX 00 23:25:40
INDEX 01 23:26:48
TRACK 09 AUDIO
TITLE “Look At Yourself”
PERFORMER “Uriah Heep”
INDEX 00 26:23:00
INDEX 01 26:24:15
TRACK 10 AUDIO
TITLE “Woman Of The World”
PERFORMER “Uriah Heep”
INDEX 00 31:33:18
INDEX 01 31:34:30
TRACK 11 AUDIO
TITLE “Who Needs Me”
PERFORMER “Uriah Heep”
INDEX 00 34:43:68
INDEX 01 34:44:50
TRACK 12 AUDIO
TITLE “Love Or Nothing”
PERFORMER “Uriah Heep”
INDEX 00 38:22:58
INDEX 01 38:23:73
TRACK 13 AUDIO
TITLE “Come Back To Me”
PERFORMER “Uriah Heep”
INDEX 00 41:22:43
INDEX 01 41:23:13
TRACK 14 AUDIO
TITLE “Gypsy”
PERFORMER “Uriah Heep”
INDEX 00 45:42:33
INDEX 01 45:43:30
TRACK 15 AUDIO
TITLE “Bird of Prey”
PERFORMER “Uriah Heep”
INDEX 00 48:39:28
INDEX 01 48:40:55
TRACK 16 AUDIO
TITLE “Return To Fantasy”
PERFORMER “Uriah Heep”
INDEX 00 52:52:50
INDEX 01 52:54:10
TRACK 17 AUDIO
TITLE “Sweet Lorraine”
PERFORMER “Uriah Heep”
INDEX 00 58:45:03
INDEX 01 58:45:48
TRACK 18 AUDIO
TITLE “Shady Lady”
PERFORMER “Uriah Heep”
INDEX 00 63:00:18
INDEX 01 63:01:30
TRACK 19 AUDIO
TITLE “Flyin’ High”
PERFORMER “Uriah Heep”
INDEX 00 67:48:70
INDEX 01 67:50:13
TRACK 20 AUDIO
TITLE “Firefly”
PERFORMER “Uriah Heep”
INDEX 00 71:09:35
INDEX 01 71:10:38


Leave a Reply

Your email address will not be published. Required fields are marked *

Enter the text from the image below
 

This site uses Akismet to reduce spam. Learn how your comment data is processed.