Uriah Heep – Sonic Origami




Artist: Uriah Heep
Year: 1998
Genre: Rock
Notes: Discogs
Add. Notes:
Cover incl.: Yes
Encoder: FLAC
Bitrate: ~900 kBit/s (44.1 kHz/16 Bit/s)
Log & Cue incl.: Yes
Size: 743,1 MB
Password: “slam” (without ” “)


All Downloads/Hosters are compatible

Download 1
KatFile.com
Turbobit.net
Rapidgator.net
Download 2
KatFile.com
Turbobit.net
Rapidgator.net

Tracklist:

1 - Between Two Worlds - 6:29
2 - I Hear Voices - 3:55
3 - Perfect Little Heart - 5:17
4 - Heartless Land - 4:44
5 - Only The Young - 4:43
6 - In The Moment - 6:23
7 - Question - 5:26
8 - Change - 6:02
9 - Shelter From The Rain - 6:10
10 - Everything In Life - 3:15
11 - Across The Miles - 5:13
12 - Feels Like - 4:37
13 - The Golden Palace - 8:29
14 - Sweet Pretender - 4:50

EAC-Log, CUE-Sheed & NFO:

Click to open spoiler
Exact Audio Copy V1.0 beta 2 from 29. April 2011

EAC extraction logfile from 25. August 2011, 18:32

URIAH HEEP / SONIC ORIGAMI

Used drive : Optiarc DVD RW AD-7240S Adapter: 1 ID: 0

Read mode : Secure
Utilize accurate stream : Yes
Defeat audio cache : Yes
Make use of C2 pointers : No

Read offset correction : 48
Overread into Lead-In and Lead-Out : No
Fill up missing offset samples with silence : Yes
Delete leading and trailing silent blocks : No
Null samples used in CRC calculations : Yes
Used interface : Native Win32 interface for Win NT & 2000

Used output format : User Defined Encoder
Selected bitrate : 1024 kBit/s
Quality : High
Add ID3 tag : Yes
Command line compressor : C:\Program Files\Exact Audio Copy\Flac\flac.exe
Additional command line options : -6 -V -T “ARTIST=%artist%” -T “TITLE=%title%” -T “ALBUM=%albumtitle%” -T “DATE=%year%” -T “TRACKNUMBER=%tracknr%” -T “GENRE=%genre%” -T “COMMENT=%comment%” %source% -o %dest%

TOC of the extracted CD

Track | Start | Length | Start sector | End sector
———————————————————
1 | 0:00.00 | 6:28.68 | 0 | 29167
2 | 6:28.68 | 3:55.68 | 29168 | 46860
3 | 10:24.61 | 5:17.72 | 46861 | 70707
4 | 15:42.58 | 4:44.28 | 70708 | 92035
5 | 20:27.11 | 4:43.55 | 92036 | 113315
6 | 25:10.66 | 6:23.30 | 113316 | 142070
7 | 31:34.21 | 5:26.57 | 142071 | 166577
8 | 37:01.03 | 6:03.63 | 166578 | 193865
9 | 43:04.66 | 6:09.52 | 193866 | 221592
10 | 49:14.43 | 3:14.23 | 221593 | 236165
11 | 52:28.66 | 5:14.67 | 236166 | 259782
12 | 57:43.58 | 4:37.15 | 259783 | 280572
13 | 62:20.73 | 8:33.13 | 280573 | 319060
14 | 70:54.11 | 4:46.17 | 319061 | 340527

Range status and errors

Selected range

Filename E:\music\Uriah Heep\1998. Sonic Origami\URIAH HEEP – SONIC ORIGAMI.wav

Peak level 96.6 %
Extraction speed 4.5 X
Range quality 100.0 %
Test CRC 47415C17
Copy CRC 47415C17
Copy OK

No errors occurred

AccurateRip summary

Track 1 cannot be verified as accurate (confidence 2) [B0C3ABAB], AccurateRip returned [3EB98042] (AR v2)
Track 2 cannot be verified as accurate (confidence 2) [71021E40], AccurateRip returned [00ED5AB6] (AR v2)
Track 3 cannot be verified as accurate (confidence 2) [09DB2B79], AccurateRip returned [C6E6A6E3] (AR v2)
Track 4 cannot be verified as accurate (confidence 2) [DA186D65], AccurateRip returned [DE829F22] (AR v2)
Track 5 cannot be verified as accurate (confidence 2) [796F484E], AccurateRip returned [FF3B7E43] (AR v2)
Track 6 cannot be verified as accurate (confidence 2) [BF1F129B], AccurateRip returned [1AC2DCDC] (AR v2)
Track 7 cannot be verified as accurate (confidence 2) [5FD96CA8], AccurateRip returned [AB088DA3] (AR v2)
Track 8 cannot be verified as accurate (confidence 2) [62E7DF76], AccurateRip returned [722C2621] (AR v2)
Track 9 cannot be verified as accurate (confidence 2) [21A26D2B], AccurateRip returned [7C3D04EB] (AR v2)
Track 10 cannot be verified as accurate (confidence 2) [2D53DA7A], AccurateRip returned [9E56EDF6] (AR v2)
Track 11 cannot be verified as accurate (confidence 2) [C71FC602], AccurateRip returned [55DB0099] (AR v2)
Track 12 cannot be verified as accurate (confidence 2) [AA24E6DD], AccurateRip returned [55D1BF6E] (AR v2)
Track 13 cannot be verified as accurate (confidence 2) [EBD356B2], AccurateRip returned [C1BB3D90] (AR v2)
Track 14 cannot be verified as accurate (confidence 2) [49061143], AccurateRip returned [CEEE2CE3] (AR v2)

No tracks could be verified as accurate
You may have a different pressing from the one(s) in the database

End of status report

==== Log checksum B92A158D70967784B20DEBB40E8036E133EAB50461C2D8F6B8628DD23DA38FBB ====

REM GENRE “Hard Rock”
REM DATE 1998
REM DISCID CC11BC0E
REM COMMENT “ExactAudioCopy v1.0b2”
PERFORMER “URIAH HEEP”
TITLE “SONIC ORIGAMI”
FILE “URIAH HEEP – SONIC ORIGAMI.flac” WAVE
TRACK 01 AUDIO
TITLE “Between Two Worlds”
PERFORMER “URIAH HEEP”
INDEX 01 00:00:00
TRACK 02 AUDIO
TITLE “I Hear Voices”
PERFORMER “URIAH HEEP”
INDEX 01 06:28:68
TRACK 03 AUDIO
TITLE “Perfect Little Heart”
PERFORMER “URIAH HEEP”
INDEX 01 10:24:61
TRACK 04 AUDIO
TITLE “Heartless Land”
PERFORMER “URIAH HEEP”
INDEX 00 15:40:03
INDEX 01 15:42:58
TRACK 05 AUDIO
TITLE “Only The Young”
PERFORMER “URIAH HEEP”
INDEX 01 20:27:11
TRACK 06 AUDIO
TITLE “In The Moment”
PERFORMER “URIAH HEEP”
INDEX 01 25:10:66
TRACK 07 AUDIO
TITLE “Question”
PERFORMER “URIAH HEEP”
INDEX 00 31:33:40
INDEX 01 31:34:21
TRACK 08 AUDIO
TITLE “Change”
PERFORMER “URIAH HEEP”
INDEX 01 37:01:03
TRACK 09 AUDIO
TITLE “Shelter From The Rain”
PERFORMER “URIAH HEEP”
INDEX 00 43:04:10
INDEX 01 43:04:66
TRACK 10 AUDIO
TITLE “Everything In Life”
PERFORMER “URIAH HEEP”
INDEX 00 49:12:63
INDEX 01 49:14:43
TRACK 11 AUDIO
TITLE “Across The Miles”
PERFORMER “URIAH HEEP”
INDEX 01 52:28:66
TRACK 12 AUDIO
TITLE “Feels Like”
PERFORMER “URIAH HEEP”
INDEX 00 57:43:03
INDEX 01 57:43:58
TRACK 13 AUDIO
TITLE “The Golden Palace”
PERFORMER “URIAH HEEP”
INDEX 00 62:20:15
INDEX 01 62:20:73
TRACK 14 AUDIO
TITLE “Sweet Pretender”
PERFORMER “URIAH HEEP”
INDEX 00 70:49:30
INDEX 01 70:54:11


Leave a Reply

Your email address will not be published. Required fields are marked *

This site uses Akismet to reduce spam. Learn how your comment data is processed.