Uriah Heep – Sea Of Light (Reissue)




[Total: 0    Average: 0/5]

Artist: Uriah Heep
Year: 1995/2004
Genre: Rock
Notes: Discogs
Add. Notes: Reissue
Cover incl.: Yes
Encoder: FLAC
Bitrate: ~900 kBit/s (44.1 kHz/16 Bit/s)
Log & Cue incl.: Yes
Size: 554 MB
Password: “slam” (without ” “)


All Downloads/Hosters are compatible

Download 1
KatFile.com
Turbobit.net
FileFactory.com
Rapidgator.net
Download 2
KatFile.com
Turbobit.net
FileFactory.com
Rapidgator.net

Tracklist:

1. Against The Odds
2. Sweet Sugar
3. Time Of Revelation
4. Mistress Of All Time
5. Universal Wheels
6. Fear Of Falling
7. Spirit Of Freedom
8. Logical Progression
9. Love In Silence
10. Words In The Distance
11. Fires Of Hell
12. Dream On

EAC-Log, CUE-Sheed & NFO:

Click to open spoiler
Exact Audio Copy V1.0 beta 2 from 29. April 2011

EAC extraction logfile from 3. September 2011, 16:15

Uriah Heep / Sea Of Light

Used drive : Optiarc DVD RW AD-7240S Adapter: 1 ID: 0

Read mode : Secure
Utilize accurate stream : Yes
Defeat audio cache : Yes
Make use of C2 pointers : No

Read offset correction : 48
Overread into Lead-In and Lead-Out : No
Fill up missing offset samples with silence : Yes
Delete leading and trailing silent blocks : No
Null samples used in CRC calculations : Yes
Used interface : Native Win32 interface for Win NT & 2000

Used output format : User Defined Encoder
Selected bitrate : 1024 kBit/s
Quality : High
Add ID3 tag : Yes
Command line compressor : C:\Program Files\Exact Audio Copy\Flac\flac.exe
Additional command line options : -6 -V -T “ARTIST=%artist%” -T “TITLE=%title%” -T “ALBUM=%albumtitle%” -T “DATE=%year%” -T “TRACKNUMBER=%tracknr%” -T “GENRE=%genre%” -T “COMMENT=%comment%” %source% -o %dest%

TOC of the extracted CD

Track | Start | Length | Start sector | End sector
———————————————————
1 | 0:00.00 | 6:12.20 | 0 | 27919
2 | 6:12.20 | 4:43.29 | 27920 | 49173
3 | 10:55.49 | 4:02.28 | 49174 | 67351
4 | 14:58.02 | 5:33.06 | 67352 | 92332
5 | 20:31.08 | 5:39.05 | 92333 | 117762
6 | 26:10.13 | 4:39.00 | 117763 | 138687
7 | 30:49.13 | 4:15.16 | 138688 | 157828
8 | 35:04.29 | 6:11.69 | 157829 | 185722
9 | 41:16.23 | 6:48.05 | 185723 | 216327
10 | 48:04.28 | 4:45.74 | 216328 | 237776
11 | 52:50.27 | 3:56.67 | 237777 | 255543
12 | 56:47.19 | 4:28.21 | 255544 | 275664

Range status and errors

Selected range

Filename E:\music\Uriah Heep\1995. Sea Of Light\Uriah Heep – Sea Of Light.wav

Peak level 95.5 %
Extraction speed 4.0 X
Range quality 100.0 %
Test CRC 4BF3CA16
Copy CRC 4BF3CA16
Copy OK

No errors occurred

AccurateRip summary

Track 1 accurately ripped (confidence 2) [FD6EA4FE] (AR v1)
Track 2 accurately ripped (confidence 2) [6BD8193C] (AR v1)
Track 3 accurately ripped (confidence 2) [D09109CF] (AR v1)
Track 4 accurately ripped (confidence 2) [60695FD0] (AR v1)
Track 5 accurately ripped (confidence 2) [4CFAC374] (AR v1)
Track 6 accurately ripped (confidence 2) [ECC5FF37] (AR v1)
Track 7 accurately ripped (confidence 2) [EB849B86] (AR v1)
Track 8 accurately ripped (confidence 2) [1AA569BA] (AR v1)
Track 9 accurately ripped (confidence 2) [D163BDFB] (AR v1)
Track 10 accurately ripped (confidence 2) [294BB79A] (AR v1)
Track 11 accurately ripped (confidence 2) [187046AF] (AR v1)
Track 12 accurately ripped (confidence 2) [43115AD0] (AR v1)

All tracks accurately ripped

End of status report

==== Log checksum 895238DEAB0EAD5E5B0165C9DB43BB508E1EF2CE2B97F92F2D2F9EF174FA2184 ====

REM GENRE “Hard Rock”
REM DATE 1995
REM DISCID A50E5B0C
REM COMMENT “ExactAudioCopy v1.0b2”
PERFORMER “Uriah Heep”
TITLE “Sea Of Light”
FILE “Uriah Heep – Sea Of Light.flac” WAVE
TRACK 01 AUDIO
TITLE “Against The Odds”
PERFORMER “Uriah Heep”
INDEX 01 00:00:00
TRACK 02 AUDIO
TITLE “Sweet Sugar”
PERFORMER “Uriah Heep”
INDEX 00 06:10:69
INDEX 01 06:12:20
TRACK 03 AUDIO
TITLE “Time Of Revelation”
PERFORMER “Uriah Heep”
INDEX 00 10:53:52
INDEX 01 10:55:49
TRACK 04 AUDIO
TITLE “Mistress Of All Time”
PERFORMER “Uriah Heep”
INDEX 00 14:55:71
INDEX 01 14:58:02
TRACK 05 AUDIO
TITLE “Universal Wheels”
PERFORMER “Uriah Heep”
INDEX 00 20:29:11
INDEX 01 20:31:08
TRACK 06 AUDIO
TITLE “Fear Of Falling”
PERFORMER “Uriah Heep”
INDEX 00 26:08:25
INDEX 01 26:10:13
TRACK 07 AUDIO
TITLE “Spirit Of Freedom”
PERFORMER “Uriah Heep”
INDEX 00 30:47:11
INDEX 01 30:49:13
TRACK 08 AUDIO
TITLE “Logical Progression”
PERFORMER “Uriah Heep”
INDEX 00 35:01:38
INDEX 01 35:04:29
TRACK 09 AUDIO
TITLE “Love In Silence”
PERFORMER “Uriah Heep”
INDEX 00 41:14:26
INDEX 01 41:16:23
TRACK 10 AUDIO
TITLE “Words In The Distance”
PERFORMER “Uriah Heep”
INDEX 00 48:02:34
INDEX 01 48:04:28
TRACK 11 AUDIO
TITLE “Fires Of Hell”
PERFORMER “Uriah Heep”
INDEX 00 52:48:27
INDEX 01 52:50:27
TRACK 12 AUDIO
TITLE “Dream On”
PERFORMER “Uriah Heep”
INDEX 00 56:45:22
INDEX 01 56:47:19


Spread the Download

Leave a Reply

Your email address will not be published. Required fields are marked *

Enter the text from the image below
 

This site uses Akismet to reduce spam. Learn how your comment data is processed.