Uriah Heep – Salisbury




No Cover available

Artist: Uriah Heep
Year: 1971/2001
Genre: Rock
Notes: Discogs
Add. Notes:
Watch Songs on: YouTube
Cover incl.: Yes
Encoder: FLAC
Bitrate: ~1000 kBit/s (44.1 kHz/16 Bit/s)
Log & Cue incl.: Yes/Yes
Size: 353,2 MB
Password: “slam” (without ” “)


All Downloads/Hosters are compatible

Download 1
KatFile.com
Turbobit.net
Rapidgator.net
FileFactory.com
Download 2
KatFile.com
Turbobit.net
Rapidgator.net
FileFactory.com

Tracklist:

1 Bird Of Prey 4:13
2 The Park 5:42
3 Time To Live 4:01
4 Lady In Black 4:44
5 High Priestess 3:42
6 Salisbury 16:21

EAC-Log, CUE-Sheed & NFO:

Click to open spoiler
Exact Audio Copy V0.99 prebeta 5 from 4. May 2009

Отчёт EAC об извлечении, выполненном 15. августа 2010, 20:37

Uriah Heep / Salisbury

Дисковод: MATSHITADVD-RAM UJ-850S Adapter: 1 ID: 0

Режим чтения : Достоверность
Использование точного потока : Да
Отключение кэша аудио : Да
Использование указателей C2 : Нет

Коррекция смещения при чтении : 102
Способность читать области Lead-in и Lead-out : Нет
Заполнение пропущенных сэмплов тишиной : Да
Удаление блоков с тишиной в начале и конце : Нет
При вычислениях CRC использовались нулевые сэмплы : Да
Интерфейс : Встроенный Win32-интерфейс для Win NT/2000

Выходной формат : Пользовательский кодировщик
Выбранный битрейт : 768 kBit/s
Качество : Высокий
Добавление ID3-тэга : Нет
Утилита сжатия : C:\Program Files\Exact Audio Copy\Flac\flac.exe
Дополнительные параметры : -6 -V -T “ARTIST=%a” -T “TITLE=%t” -T “ALBUM=%g” -T “DATE=%y” -T “TRACKNUMBER=%n” -T “GENRE=%m” -T “COMMENT=%e” %s -o %d

TOC извлечённого CD

Трек | Старт | Длительность | Начальный сектор | Конечный сектор
———————————————————————
1 | 0:00.00 | 4:13.63 | 0 | 19037
2 | 4:13.63 | 5:42.00 | 19038 | 44687
3 | 9:55.63 | 4:01.00 | 44688 | 62762
4 | 13:56.63 | 4:44.00 | 62763 | 84062
5 | 18:40.63 | 3:41.00 | 84063 | 100637
6 | 22:21.63 | 16:12.50 | 100638 | 173587

Характеристики диапазона извлечения и сообщения об ошибках

Выбранный диапазон

Имя файла G:\ALIK\Root\Uriah Heep box set\Salisbury\Uriah Heep – Salisbury.wav

Пиковый уровень 100.0 %
Качество диапазона 99.9 %
CRC теста CB4557BF
CRC копии CB4557BF
Копирование… OK

Ошибок не произошло

AccurateRip: сводка

Трек 1 точное извлечение (доверие 5) [277A712E]
Трек 2 точное извлечение (доверие 5) [BA74F165]
Трек 3 точное извлечение (доверие 5) [FFD29688]
Трек 4 точное извлечение (доверие 5) [0F357AB4]
Трек 5 точное извлечение (доверие 5) [350EE5B7]
Трек 6 точное извлечение (доверие 5) [5E493ED6]

Все треки извлечены точно

Конец отчёта

REM GENRE Rock
REM DATE 1970
REM DISCID 47090A06
REM COMMENT “ExactAudioCopy v0.99pb5”
PERFORMER “Uriah Heep”
TITLE “Salisbury”
FILE “Uriah Heep – Salisbury.flac” WAVE
TRACK 01 AUDIO
TITLE “Bird of Prey”
PERFORMER “Uriah Heep”
INDEX 01 00:00:00
TRACK 02 AUDIO
TITLE “The Park”
PERFORMER “Uriah Heep”
INDEX 00 04:12:30
INDEX 01 04:13:63
TRACK 03 AUDIO
TITLE “Time to Live”
PERFORMER “Uriah Heep”
INDEX 00 09:54:43
INDEX 01 09:55:63
TRACK 04 AUDIO
TITLE “Lady in Black”
PERFORMER “Uriah Heep”
INDEX 00 13:55:69
INDEX 01 13:56:63
TRACK 05 AUDIO
TITLE “High Priestess”
PERFORMER “Uriah Heep”
INDEX 00 18:39:08
INDEX 01 18:40:63
TRACK 06 AUDIO
TITLE “Salisbury”
PERFORMER “Uriah Heep”
INDEX 00 22:20:59
INDEX 01 22:21:63


Leave a Reply

Your email address will not be published. Required fields are marked *

Enter the text from the image below
 

This site uses Akismet to reduce spam. Learn how your comment data is processed.