Uriah Heep – Salisbury (Remastered)




[Total: 0    Average: 0/5]

Artist: Uriah Heep
Year: 1971/1996
Genre: Rock
Notes: Discogs
Add. Notes: Remastered
Cover incl.: Yes
Encoder: FLAC
Bitrate: ~900 kBit/s (44.1 kHz/16 Bit/s)
Log & Cue incl.: Yes
Size: 617,04 MB
Password: “slam” (without ” “)


All Downloads/Hosters are compatible

Download 1
Share-online.biz
KatFile.com
Rapidgator.net
Download 2
Share-online.biz
KatFile.com
Rapidgator.net

Tracklist:

1 - Bird Of Prey - 4:13
2 - The Park - 5:42
3 - Time To Live - 4:01
4 - Lady In Black - 4:44
5 - High Priestess - 3:42
6 - Salisbury - 16:21
Bonus Tracks
7 - Simon The Bullet Freak - 3:27
8 - High Priestess (Single Edit.) - 3:14

EAC-Log, CUE-Sheed & NFO:

Click to open spoiler
Exact Audio Copy V0.99 prebeta 5 from 4. May 2009

Отчёт EAC об извлечении, выполненном 17. апреля 2011, 21:35

Uriah Heep / Salisbury

Дисковод: Optiarc DVD RW AD-7240S Adapter: 1 ID: 0

Режим чтения : Достоверность
Использование точного потока : Да
Отключение кэша аудио : Да
Использование указателей C2 : Нет

Коррекция смещения при чтении : 48
Способность читать области Lead-in и Lead-out : Нет
Заполнение пропущенных сэмплов тишиной : Да
Удаление блоков с тишиной в начале и конце : Нет
При вычислениях CRC использовались нулевые сэмплы : Да
Интерфейс : Встроенный Win32-интерфейс для Win NT/2000

Выходной формат : Пользовательский кодировщик
Выбранный битрейт : 768 kBit/s
Качество : Высокий
Добавление ID3-тэга : Нет
Утилита сжатия : C:\Program Files\Exact Audio Copy\FLAC\FLAC.EXE
Дополнительные параметры : -6 -V -T “ARTIST=%a” -T “TITLE=%t” -T “ALBUM=%g” -T “DATE=%y” -T “TRACKNUMBER=%n” -T “GENRE=%m” -T “COMMENT=%e” %s -o %d

TOC извлечённого CD

Трек | Старт | Длительность | Начальный сектор | Конечный сектор
———————————————————————
1 | 0:00.00 | 4:13.07 | 0 | 18981
2 | 4:13.07 | 5:41.50 | 18982 | 44606
3 | 9:54.57 | 4:01.13 | 44607 | 62694
4 | 13:55.70 | 4:44.17 | 62695 | 84011
5 | 18:40.12 | 3:42.13 | 84012 | 100674
6 | 22:22.25 | 16:20.50 | 100675 | 174224
7 | 38:43.00 | 3:27.05 | 174225 | 189754
8 | 42:10.05 | 3:13.45 | 189755 | 204274

Характеристики диапазона извлечения и сообщения об ошибках

Выбранный диапазон

Имя файла E:\music\Uriah Heep\1971. Salisbury\1971. Salisbury (Castle ESMCD 317, England)\Uriah Heep – Salisbury.wav

Пиковый уровень 100.0 %
Качество диапазона 100.0 %
CRC теста 85A6DFF2
CRC копии 85A6DFF2
Копирование… OK

Ошибок не произошло

AccurateRip: сводка

Трек 1 точное извлечение (доверие 32) [5F16AC04]
Трек 2 точное извлечение (доверие 33) [98500E26]
Трек 3 точное извлечение (доверие 33) [A61FE2C3]
Трек 4 точное извлечение (доверие 34) [EF13E592]
Трек 5 точное извлечение (доверие 33) [D56224A7]
Трек 6 точное извлечение (доверие 32) [34517871]
Трек 7 точное извлечение (доверие 32) [C74EC33E]
Трек 8 точное извлечение (доверие 31) [C27B5383]

Все треки извлечены точно

Конец отчёта

REM GENRE “Progressive Rock”
REM DATE 1971
REM DISCID 5E0AA308
REM COMMENT “ExactAudioCopy v0.99pb5”
PERFORMER “Uriah Heep”
TITLE “Salisbury”
FILE “Uriah Heep – Salisbury.flac” WAVE
TRACK 01 AUDIO
TITLE “Bird Of Prey”
PERFORMER “Uriah Heep”
INDEX 01 00:00:00
TRACK 02 AUDIO
TITLE “The Park”
PERFORMER “Uriah Heep”
INDEX 01 04:13:07
TRACK 03 AUDIO
TITLE “Time To Live”
PERFORMER “Uriah Heep”
INDEX 00 09:53:57
INDEX 01 09:54:57
TRACK 04 AUDIO
TITLE “Lady In Black”
PERFORMER “Uriah Heep”
INDEX 01 13:55:70
TRACK 05 AUDIO
TITLE “High Priestess”
PERFORMER “Uriah Heep”
INDEX 00 18:38:42
INDEX 01 18:40:12
TRACK 06 AUDIO
TITLE “Salisbury”
PERFORMER “Uriah Heep”
INDEX 00 22:21:01
INDEX 01 22:22:25
TRACK 07 AUDIO
TITLE “Simon The Bullet Freak (bonus track)”
PERFORMER “Uriah Heep”
INDEX 00 38:35:60
INDEX 01 38:43:00
TRACK 08 AUDIO
TITLE “High Priestess (bonus track – single edition)”
PERFORMER “Uriah Heep”
INDEX 00 42:07:47
INDEX 01 42:10:05


Spread the Download

Leave a Reply

Your email address will not be published. Required fields are marked *

Enter the text from the image below
 

This site uses Akismet to reduce spam. Learn how your comment data is processed.