Uriah Heep – Salisbury (Remastered Deluxe Edition)




[Total: 0    Average: 0/5]

Artist: Uriah Heep
Year: 1971/2003
Genre: Rock
Notes: Discogs
Add. Notes: Remastered Deluxe Edition
Cover incl.: Yes
Encoder: FLAC
Bitrate: ~900 kBit/s (44.1 kHz/16 Bit/s)
Log & Cue incl.: Yes
Size: 525,5 MB
Password: “slam” (without ” “)


All Downloads/Hosters are compatible

Download 1
KatFile.com
Turbobit.net
FileFactory.com
Rapidgator.net
Download 2
KatFile.com
Turbobit.net
FileFactory.com
Rapidgator.net

Tracklist:

1 Bird Of Prey 4:14
2 The Park 5:44
3 Time To Live 4:03
4 Lady In Black 4:42
5 High Priestess 3:41
6 Salisbury 16:17
Bonus Tracks
7 Simon The Bullet Freak (US Album Version) 3:27
8 Here I Am (Previously Unreleased Version) 7:50
9 Lady In Black (Previously Unreleased Version) 3:33
10 High Priestess (Single Edit) 3:38
11 Salisbury (Previously Unreleased Single Edit) 4:21
12 The Park (Previously Unreleased Version) 5:18
13 Time To Live (Previously Unreleased Version) 4:14

EAC-Log, CUE-Sheed & NFO:

Click to open spoiler
Exact Audio Copy V1.0 beta 3 from 29. August 2011

EAC extraction logfile from 5. November 2013, 20:52

Uriah Heep / Salisbury (Expended Deluxe Edition)

Used drive : SONY BD RW BDX-S600U Adapter: 2 ID: 0

Read mode : Secure
Utilize accurate stream : Yes
Defeat audio cache : Yes
Make use of C2 pointers : No

Read offset correction : 48
Overread into Lead-In and Lead-Out : No
Fill up missing offset samples with silence : Yes
Delete leading and trailing silent blocks : No
Null samples used in CRC calculations : Yes
Used interface : Native Win32 interface for Win NT & 2000

Used output format : User Defined Encoder
Selected bitrate : 128 kBit/s
Quality : High
Add ID3 tag : No
Command line compressor : C:\Program Files (x86)\Exact Audio Copy\Flac\flac.exe
Additional command line options : -V -8 -T “Date=%year%” -T “Genre=%genre%” %source%

TOC of the extracted CD

Track | Start | Length | Start sector | End sector
———————————————————
1 | 0:00.00 | 4:14.19 | 0 | 19068
2 | 4:14.19 | 5:44.19 | 19069 | 44887
3 | 9:58.38 | 4:03.16 | 44888 | 63128
4 | 14:01.54 | 4:42.57 | 63129 | 84335
5 | 18:44.36 | 3:41.33 | 84336 | 100943
6 | 22:25.69 | 16:17.47 | 100944 | 174265
7 | 38:43.41 | 3:27.13 | 174266 | 189803
8 | 42:10.54 | 7:50.28 | 189804 | 225081
9 | 50:01.07 | 3:33.02 | 225082 | 241058
10 | 53:34.09 | 3:38.09 | 241059 | 257417
11 | 57:12.18 | 4:21.42 | 257418 | 277034
12 | 61:33.60 | 5:18.00 | 277035 | 300884
13 | 66:51.60 | 4:14.08 | 300885 | 319942

Range status and errors

Selected range

Filename D:\Uriah Heep – Discography\Studio\1971. Salisbury\1971. Salisbury Expanded De-Luxe Edition (Sanctuary SMRCD049,Germany)\Uriah Heep – Salisbury (Expended Deluxe Edition).wav

Peak level 100.0 %
Extraction speed 16.4 X
Range quality 100.0 %
Test CRC C4632E4F
Copy CRC C4632E4F
Copy OK

No errors occurred

AccurateRip summary

Track 1 cannot be verified as accurate (confidence 29) [511AAAF2], AccurateRip returned [82DAA006] (AR v2)
Track 2 accurately ripped (confidence 28) [DC027295] (AR v2)
Track 3 accurately ripped (confidence 28) [12BAC9B2] (AR v2)
Track 4 accurately ripped (confidence 28) [02E85738] (AR v2)
Track 5 accurately ripped (confidence 28) [0734B9CB] (AR v2)
Track 6 accurately ripped (confidence 28) [9B2EDE69] (AR v2)
Track 7 accurately ripped (confidence 27) [5A12B07C] (AR v2)
Track 8 accurately ripped (confidence 27) [C13211A1] (AR v2)
Track 9 accurately ripped (confidence 27) [159BEC00] (AR v2)
Track 10 accurately ripped (confidence 27) [C52F7BB3] (AR v2)
Track 11 accurately ripped (confidence 27) [84AEBC04] (AR v2)
Track 12 accurately ripped (confidence 27) [FE440A66] (AR v2)
Track 13 accurately ripped (confidence 25) [5C2DE1B0] (AR v2)

12 трек(и) скопированы точно
1 трек(и) не удалось проверить на точность

Some tracks could not be verified as accurate

End of status report

—- CUETools DB Plugin V2.1.3

[CTDB TOCID: RtYI_eR8myzcDJutyleKGiMlu.I-] found, Submit result: RtYI_eR8myzcDJutyleKGiMlu.I- has been submitted
[dcb5e2aa] (66/74) Differs in 239 samples @00:20:49
[fd8c69df] (06/74) No match
[eba1ea6e] (01/74) No match
[eb0b69ac] (01/74) No match
You can use CUETools to repair this rip.

==== Log checksum EA66A1F482EB67636BEB98EFCBC64C8B3C9421BE2B3D5FD745A61399F06A4E7A ====

REM GENRE “Hard Rock”
REM DATE 1971
REM DISCID 9410A90D
REM COMMENT “ExactAudioCopy v1.0b3”
PERFORMER “Uriah Heep”
TITLE “Salisbury (Expended Deluxe Edition)”
FILE “Uriah Heep – Salisbury (Expended Deluxe Edition).flac” WAVE
TRACK 01 AUDIO
TITLE “Bird Of Prey”
PERFORMER “Uriah Heep”
ISRC GBAJE7100110
INDEX 01 00:00:00
TRACK 02 AUDIO
TITLE “The Park”
PERFORMER “Uriah Heep”
ISRC GBAJE7100111
INDEX 00 04:13:66
INDEX 01 04:14:19
TRACK 03 AUDIO
TITLE “Time To Live”
PERFORMER “Uriah Heep”
ISRC GBAJE7100112
INDEX 00 09:58:11
INDEX 01 09:58:38
TRACK 04 AUDIO
TITLE “Lady In Black”
PERFORMER “Uriah Heep”
ISRC GBAJE7100113
INDEX 00 14:01:27
INDEX 01 14:01:54
TRACK 05 AUDIO
TITLE “High Priestess”
PERFORMER “Uriah Heep”
INDEX 00 18:44:19
INDEX 01 18:44:36
TRACK 06 AUDIO
TITLE “Salisbury”
PERFORMER “Uriah Heep”
ISRC GBAJE7100115
INDEX 00 22:25:42
INDEX 01 22:25:69
TRACK 07 AUDIO
TITLE “Simon The Bullet Freak [US Album Version]”
PERFORMER “Uriah Heep”
ISRC GBAJE7100526
INDEX 00 38:40:36
INDEX 01 38:43:41
TRACK 08 AUDIO
TITLE “Here Am I [Previously Unreleased Version]”
PERFORMER “Uriah Heep”
ISRC GBAJE0300002
INDEX 00 42:08:53
INDEX 01 42:10:54
TRACK 09 AUDIO
TITLE “Lady In Black [Previously Unreleased Version]”
PERFORMER “Uriah Heep”
ISRC GBAJE0300001
INDEX 00 50:00:54
INDEX 01 50:01:07
TRACK 10 AUDIO
TITLE “High Priestess [Single Edit]”
PERFORMER “Uriah Heep”
ISRC GBAJE7100541
INDEX 00 53:32:08
INDEX 01 53:34:09
TRACK 11 AUDIO
TITLE “Salisbury [Previously Unreleased Single Edit]”
PERFORMER “Uriah Heep”
ISRC GBAJE0300019
INDEX 00 57:08:53
INDEX 01 57:12:18
TRACK 12 AUDIO
TITLE “The Park [Previously Unreleased Mix]”
PERFORMER “Uriah Heep”
ISRC GBAJE0300020
INDEX 00 61:32:24
INDEX 01 61:33:60
TRACK 13 AUDIO
TITLE “Time To Live [Previously Unreleased Mix]”
PERFORMER “Uriah Heep”
ISRC GBAJE0300021
INDEX 00 66:50:19
INDEX 01 66:51:60


Spread the Download

Leave a Reply

Your email address will not be published. Required fields are marked *

Enter the text from the image below
 

This site uses Akismet to reduce spam. Learn how your comment data is processed.