Uriah Heep – Salisbury (Japanese Edition)




[Total: 0    Average: 0/5]

Artist: Uriah Heep
Year: 1971/1989
Genre: Rock
Notes: Discogs
Add. Notes: Japanese Edition
Cover incl.: Yes
Encoder: FLAC
Bitrate: ~900 kBit/s (44.1 kHz/16 Bit/s)
Log & Cue incl.: Yes
Size: 260,3 MB
Password: “slam” (without ” “)


All Downloads/Hosters are compatible

Download 1
KatFile.com
Rapidgator.net
NitroFlare.com
Share-online.biz
Download 2
KatFile.com
Rapidgator.net
NitroFlare.com
Share-online.biz

Tracklist:

1. Bird Of Prey
2. The Park
3. Time To Live
4. Lady In Black
5. High Priestess
6. Salisbury

EAC-Log, CUE-Sheed & NFO:

Click to open spoiler
Exact Audio Copy V0.99 prebeta 5 from 4. May 2009

Отчёт EAC об извлечении, выполненном 13. марта 2011, 21:15

URIAH HEEP / SALISBURY

Дисковод: ASUS SDRW-08D2S-U Adapter: 2 ID: 0

Режим чтения : Достоверность
Использование точного потока : Да
Отключение кэша аудио : Да
Использование указателей C2 : Нет

Коррекция смещения при чтении : 103
Способность читать области Lead-in и Lead-out : Нет
Заполнение пропущенных сэмплов тишиной : Да
Удаление блоков с тишиной в начале и конце : Нет
При вычислениях CRC использовались нулевые сэмплы : Да
Интерфейс : Встроенный Win32-интерфейс для Win NT/2000

Выходной формат : Пользовательский кодировщик
Выбранный битрейт : 768 kBit/s
Качество : Высокий
Добавление ID3-тэга : Нет
Утилита сжатия : C:\Program Files\Exact Audio Copy\FLAC\FLAC.EXE
Дополнительные параметры : -8 -V %s

TOC извлечённого CD

Трек | Старт | Длительность | Начальный сектор | Конечный сектор
———————————————————————
1 | 0:00.37 | 4:14.10 | 37 | 19096
2 | 4:14.47 | 5:43.58 | 19097 | 44879
3 | 9:58.30 | 4:02.72 | 44880 | 63101
4 | 14:01.27 | 4:43.30 | 63102 | 84356
5 | 18:44.57 | 3:41.25 | 84357 | 100956
6 | 22:26.07 | 16:16.63 | 100957 | 174219

Характеристики диапазона извлечения и сообщения об ошибках

Выбранный диапазон

Имя файла D:\uTorrent.compl\Uriah Heep – Studio Albums 1970 – 1977 ( Japan 1st & 2nd Press Rare )\Salisbury 1970 ( 1989, Japan 1st Press, Teichiku TECP-18011 )\URIAH HEEP – SALISBURY.wav

Пиковый уровень 100.0 %
Качество диапазона 100.0 %
CRC теста 47C7ADC1
CRC копии 47C7ADC1
Копирование… OK

Ошибок не произошло

AccurateRip: сводка

Трек 1 нет в базе данных
Трек 2 нет в базе данных
Трек 3 нет в базе данных
Трек 4 нет в базе данных
Трек 5 нет в базе данных
Трек 6 нет в базе данных

Ни одного трека нет в базе AccurateRip

Конец отчёта

REM DISCID 3E091206
REM COMMENT “ExactAudioCopy v0.99pb5”
PERFORMER “URIAH HEEP”
TITLE “SALISBURY”
FILE “URIAH HEEP – SALISBURY.flac” WAVE
TRACK 01 AUDIO
TITLE “BARD OF FREY”
PERFORMER “URIAH HEEP”
INDEX 00 00:00:00
INDEX 01 00:00:37
TRACK 02 AUDIO
TITLE “THE PARK”
PERFORMER “URIAH HEEP”
INDEX 01 04:14:47
TRACK 03 AUDIO
TITLE “TIME TO LIVE”
PERFORMER “URIAH HEEP”
INDEX 00 09:55:62
INDEX 01 09:58:30
TRACK 04 AUDIO
TITLE “LADY IN BLACK”
PERFORMER “URIAH HEEP”
INDEX 01 14:01:27
TRACK 05 AUDIO
TITLE “HIGH PRIESTESS”
PERFORMER “URIAH HEEP”
INDEX 01 18:44:57
TRACK 06 AUDIO
TITLE “SALISBURY”
PERFORMER “URIAH HEEP”
INDEX 01 22:26:07


Spread the Download

Leave a Reply

Your email address will not be published. Required fields are marked *

Enter the text from the image below
 

This site uses Akismet to reduce spam. Learn how your comment data is processed.