Uriah Heep – Return To Fantasy




Artist: Uriah Heep
Year: 1975
Genre: Rock
Notes: Discogs
Add. Notes:
Cover incl.: Yes
Encoder: FLAC
Bitrate: ~900 kBit/s (44.1 kHz/16 Bit/s)
Log & Cue incl.: Yes
Size: 275,24 MB
Password: “slam” (without ” “)


All Downloads/Hosters are compatible

Download 1
Turbobit.net
KatFile.com
Rapidgator.net
Download 2
Turbobit.net
KatFile.com
Rapidgator.net

Tracklist:

1 - Return To Fantasy - 5:52
2 - Shady Lady - 4:46
3 - Devil's Daughter - 4:48
4 - Beautiful Dream - 4:52
5 - Prima Donna - 3:11
6 - Your Turn To Remember - 4:22
7 - Showdown - 4:17
8 - Why Did You Go - 3:53
9 - A Year Or A Day - 4:22

EAC-Log, CUE-Sheed & NFO:

Click to open spoiler
Exact Audio Copy V1.0 beta 3 from 29. August 2011

EAC extraction logfile from 9. September 2013, 9:39

Uriah Heep / Return To Fantasy

Used drive : SONY BD RW BDX-S600U Adapter: 1 ID: 1

Read mode : Secure
Utilize accurate stream : Yes
Defeat audio cache : Yes
Make use of C2 pointers : No

Read offset correction : 48
Overread into Lead-In and Lead-Out : No
Fill up missing offset samples with silence : Yes
Delete leading and trailing silent blocks : No
Null samples used in CRC calculations : Yes
Used interface : Native Win32 interface for Win NT & 2000

Used output format : User Defined Encoder
Selected bitrate : 128 kBit/s
Quality : High
Add ID3 tag : No
Command line compressor : C:\Program Files (x86)\Exact Audio Copy\Flac\flac.exe
Additional command line options : -V -8 -T “Date=%year%” -T “Genre=%genre%” %source%

TOC of the extracted CD

Track | Start | Length | Start sector | End sector
———————————————————
1 | 0:00.00 | 5:53.10 | 0 | 26484
2 | 5:53.10 | 4:48.67 | 26485 | 48151
3 | 10:42.02 | 4:49.48 | 48152 | 69874
4 | 15:31.50 | 4:53.37 | 69875 | 91886
5 | 20:25.12 | 3:10.65 | 91887 | 106201
6 | 23:36.02 | 4:22.68 | 106202 | 125919
7 | 27:58.70 | 4:19.00 | 125920 | 145344
8 | 32:17.70 | 3:52.72 | 145345 | 162816
9 | 36:10.67 | 4:24.28 | 162817 | 182644

Range status and errors

Selected range

Filename D:\Uriah Heep – Discography\Studio\1975. Return To Fantasy\1975. Return To Fantasy (Bronze Rec. 260 132,Germany )\Uriah Heep – Return To Fantasy.wav

Peak level 100.0 %
Extraction speed 13.7 X
Range quality 100.0 %
Test CRC 34DE472B
Copy CRC 34DE472B
Copy OK

No errors occurred

AccurateRip summary

Track 1 accurately ripped (confidence 2) [503FFE9A] (AR v2)
Track 2 accurately ripped (confidence 2) [F7401643] (AR v2)
Track 3 accurately ripped (confidence 2) [B95867DB] (AR v2)
Track 4 accurately ripped (confidence 2) [38CB45A6] (AR v2)
Track 5 accurately ripped (confidence 2) [14B592A2] (AR v2)
Track 6 accurately ripped (confidence 2) [9C7290D5] (AR v2)
Track 7 accurately ripped (confidence 2) [9146CEC7] (AR v2)
Track 8 accurately ripped (confidence 2) [83544EB9] (AR v2)
Track 9 accurately ripped (confidence 2) [A1A7BB30] (AR v2)

All tracks accurately ripped

End of status report

—- CUETools DB Plugin V2.1.3

[CTDB TOCID: 1.wwPsMMO37PkwxSMI00x1VgEA8-] found, Submit result: 1.wwPsMMO37PkwxSMI00x1VgEA8- has been confirmed
[7803fbd2] (5/5) Accurately ripped

==== Log checksum D87B148C066AD2C029FF280D3D14E3856B97A2CA8407A5D45EF0F3F8F23016B5 ====

REM DATE 1975
REM DISCID 77098309
REM COMMENT “ExactAudioCopy v1.0b3”
PERFORMER “Uriah Heep”
TITLE “Return To Fantasy”
FILE “Uriah Heep – Return To Fantasy.flac” WAVE
TRACK 01 AUDIO
TITLE “Return To Fantasy”
PERFORMER “Uriah Heep”
INDEX 01 00:00:00
TRACK 02 AUDIO
TITLE “Shady Lady”
PERFORMER “Uriah Heep”
INDEX 01 05:53:10
TRACK 03 AUDIO
TITLE “Devil’s Daughter”
PERFORMER “Uriah Heep”
INDEX 00 10:41:40
INDEX 01 10:42:02
TRACK 04 AUDIO
TITLE “Beautiful Dream”
PERFORMER “Uriah Heep”
INDEX 00 15:31:15
INDEX 01 15:31:50
TRACK 05 AUDIO
TITLE “Prima Donna”
PERFORMER “Uriah Heep”
INDEX 00 20:24:42
INDEX 01 20:25:12
TRACK 06 AUDIO
TITLE “Your Turn To Remember”
PERFORMER “Uriah Heep”
INDEX 00 23:35:35
INDEX 01 23:36:02
TRACK 07 AUDIO
TITLE “Showdown”
PERFORMER “Uriah Heep”
INDEX 00 27:57:60
INDEX 01 27:58:70
TRACK 08 AUDIO
TITLE “Why Did You Go”
PERFORMER “Uriah Heep”
INDEX 00 32:17:25
INDEX 01 32:17:70
TRACK 09 AUDIO
TITLE “A Year Or A Day”
PERFORMER “Uriah Heep”
INDEX 00 36:10:22
INDEX 01 36:10:67


Leave a Reply

Your email address will not be published. Required fields are marked *

This site uses Akismet to reduce spam. Learn how your comment data is processed.