Uriah Heep – Return To Fantasy (Remastered Deluxe Edition)




Artist: Uriah Heep
Year: 1975/2004
Genre: Rock
Notes: Discogs
Add. Notes: Remastered Deluxe Edition
Cover incl.: Yes
Encoder: FLAC
Bitrate: ~1000 kBit/s (44.1 kHz/16 Bit/s)
Log & Cue incl.: Yes
Size: 542,65 MB
Password: “slam” (without ” “)


All Downloads/Hosters are compatible

Download 1
Turbobit.net
KatFile.com
Rapidgator.net
NitroFlare.com
Download 2
Turbobit.net
KatFile.com
Rapidgator.net
NitroFlare.com

Tracklist:

1. Return To Fantasy. 5:51
2. Shady Lady. 4:47
3. Devil's Daughter. 4:49
4. Beautiful Dream. 4:53
5. Prima Donna. 3:09
6. Your Turn To Remember. 4:22
7. Showdown. 4:19
8. Why Did You Go. 3:52
9. A Year Or A Day. 4:29
Bonus Tracks
10. Shout It Out (B-side). 3:34
11. The Time Will Come (B-side). 4:08
12. Prima Donna (Alternate Demo Version). 4:05
13. Why Did You Go (Alternate Demo Version). 5:18
14. Showdown (Alternate Demo Version). 4:18
15. Beautiful Dream (Alternate Demo Version). 5:48
16. Return To Fantasy (Extended Version). 7:18

EAC-Log, CUE-Sheed & NFO:

Click to open spoiler
Exact Audio Copy V1.0 beta 3 from 29. August 2011

EAC extraction logfile from 6. November 2013, 15:13

Uriah Heep / Return To Fantasy (Expanded Deluxe Edition)

Used drive : SONY BD RW BDX-S600U Adapter: 2 ID: 0

Read mode : Secure
Utilize accurate stream : Yes
Defeat audio cache : Yes
Make use of C2 pointers : No

Read offset correction : 48
Overread into Lead-In and Lead-Out : No
Fill up missing offset samples with silence : Yes
Delete leading and trailing silent blocks : No
Null samples used in CRC calculations : Yes
Used interface : Native Win32 interface for Win NT & 2000

Used output format : User Defined Encoder
Selected bitrate : 128 kBit/s
Quality : High
Add ID3 tag : No
Command line compressor : C:\Program Files (x86)\Exact Audio Copy\Flac\flac.exe
Additional command line options : -V -8 -T “Date=%year%” -T “Genre=%genre%” %source%

TOC of the extracted CD

Track | Start | Length | Start sector | End sector
———————————————————
1 | 0:00.00 | 5:51.34 | 0 | 26358
2 | 5:51.34 | 4:47.44 | 26359 | 47927
3 | 10:39.03 | 4:49.03 | 47928 | 69605
4 | 15:28.06 | 4:53.33 | 69606 | 91613
5 | 20:21.39 | 3:09.62 | 91614 | 105850
6 | 23:31.26 | 4:22.33 | 105851 | 125533
7 | 27:53.59 | 4:19.57 | 125534 | 145015
8 | 32:13.41 | 3:52.02 | 145016 | 162417
9 | 36:05.43 | 4:29.28 | 162418 | 182620
10 | 40:34.71 | 3:34.71 | 182621 | 198741
11 | 44:09.67 | 4:08.29 | 198742 | 217370
12 | 48:18.21 | 4:05.55 | 217371 | 235800
13 | 52:24.01 | 5:18.48 | 235801 | 259698
14 | 57:42.49 | 4:18.04 | 259699 | 279052
15 | 62:00.53 | 5:48.73 | 279053 | 305225
16 | 67:49.51 | 7:18.42 | 305226 | 338117

Range status and errors

Selected range

Filename D:\Uriah Heep – Discography\Studio\1975. Return To Fantasy\1975. Return To Fantasy Expanded De-Luxe Edition (Sanctuary SMRCD100,Germany)\Uriah Heep – Return To Fantasy (Expanded Deluxe Edition).wav

Peak level 100.0 %
Extraction speed 6.9 X
Range quality 99.9 %
Test CRC 30398AD5
Copy CRC 30398AD5
Copy OK

No errors occurred

AccurateRip summary

Track 1 accurately ripped (confidence 8) [2A88342B] (AR v2)
Track 2 accurately ripped (confidence 8) [731BE166] (AR v2)
Track 3 accurately ripped (confidence 8) [F8A4F0DE] (AR v2)
Track 4 accurately ripped (confidence 8) [DFF2586D] (AR v2)
Track 5 accurately ripped (confidence 8) [CB2B6FE7] (AR v2)
Track 6 accurately ripped (confidence 8) [AF237C15] (AR v2)
Track 7 accurately ripped (confidence 8) [4CD2D439] (AR v2)
Track 8 accurately ripped (confidence 8) [CB7587D4] (AR v2)
Track 9 accurately ripped (confidence 8) [F5339B3F] (AR v2)
Track 10 accurately ripped (confidence 8) [1167731E] (AR v2)
Track 11 accurately ripped (confidence 8) [0EF9BF0A] (AR v2)
Track 12 accurately ripped (confidence 8) [29718BDE] (AR v2)
Track 13 accurately ripped (confidence 8) [CB3EC728] (AR v2)
Track 14 accurately ripped (confidence 8) [E94BFC37] (AR v2)
Track 15 accurately ripped (confidence 8) [DC614DFD] (AR v2)
Track 16 accurately ripped (confidence 9) [6BB25584] (AR v2)

All tracks accurately ripped

End of status report

—- CUETools DB Plugin V2.1.3

[CTDB TOCID: Aw9HAjq_bUsvdMfamMbzf.4g0fQ-] found, Submit result: Aw9HAjq_bUsvdMfamMbzf.4g0fQ- has been confirmed
[bb4dd31a] (23/26) Accurately ripped
[97c2d1c4] (03/26) No match

==== Log checksum C3C132B82BD0494E5038C4B096CC035F0CECC17FCEBD566E07189C772ABC957B ====

REM GENRE “Hard Rock”
REM DATE 1975
REM DISCID CB119C10
REM COMMENT “ExactAudioCopy v1.0b3”
PERFORMER “Uriah Heep”
TITLE “Return To Fantasy (Expanded Deluxe Edition)”
FILE “Uriah Heep – Return To Fantasy (Expanded Deluxe Edition).flac” WAVE
TRACK 01 AUDIO
TITLE “Return To Fantasy”
PERFORMER “Uriah Heep”
ISRC GBAJE7500462
INDEX 01 00:00:00
TRACK 02 AUDIO
TITLE “Shady Lady”
PERFORMER “Uriah Heep”
INDEX 01 05:51:34
TRACK 03 AUDIO
TITLE “Devil’s Daughter”
PERFORMER “Uriah Heep”
ISRC GBAJE7500464
INDEX 00 10:38:10
INDEX 01 10:39:03
TRACK 04 AUDIO
TITLE “Beautiful Dream”
PERFORMER “Uriah Heep”
ISRC GBAJE7500465
INDEX 00 15:27:15
INDEX 01 15:28:06
TRACK 05 AUDIO
TITLE “Prima Donna”
PERFORMER “Uriah Heep”
ISRC GBAJE7500466
INDEX 00 20:20:26
INDEX 01 20:21:39
TRACK 06 AUDIO
TITLE “Your Turn To Remember”
PERFORMER “Uriah Heep”
ISRC GBAJE7500467
INDEX 00 23:29:55
INDEX 01 23:31:26
TRACK 07 AUDIO
TITLE “Showdown”
PERFORMER “Uriah Heep”
ISRC GBAJE7500468
INDEX 00 27:52:33
INDEX 01 27:53:59
TRACK 08 AUDIO
TITLE “Why Did You Go”
PERFORMER “Uriah Heep”
ISRC GBAJE7500469
INDEX 00 32:10:57
INDEX 01 32:13:41
TRACK 09 AUDIO
TITLE “A Year Or A Day”
PERFORMER “Uriah Heep”
INDEX 01 36:05:43
TRACK 10 AUDIO
TITLE “Shout It Out (B-Side to ‘Prima Donna’ Single)”
PERFORMER “Uriah Heep”
ISRC GBAJE7500471
INDEX 00 40:30:48
INDEX 01 40:34:71
TRACK 11 AUDIO
TITLE “The Time Will Come (B-Side to ‘Return To Fantasy’ Single)”
PERFORMER “Uriah Heep”
ISRC GBAJE7500472
INDEX 00 44:07:30
INDEX 01 44:09:67
TRACK 12 AUDIO
TITLE “Prima Donna (Alternate Demo Version)”
PERFORMER “Uriah Heep”
ISRC GBAJE9600250
INDEX 00 48:17:22
INDEX 01 48:18:21
TRACK 13 AUDIO
TITLE “Why Did You Go (Alternate Demo Version)”
PERFORMER “Uriah Heep”
ISRC GBAJE9600251
INDEX 00 52:22:26
INDEX 01 52:24:01
TRACK 14 AUDIO
TITLE “Showdown (Alternate Demo Version)”
PERFORMER “Uriah Heep”
ISRC GBAJE9600252
INDEX 00 57:40:74
INDEX 01 57:42:49
TRACK 15 AUDIO
TITLE “Beautiful Dream (Alternate Demo Version)”
PERFORMER “Uriah Heep”
INDEX 00 62:00:29
INDEX 01 62:00:53
TRACK 16 AUDIO
TITLE “Return To Fantasy (Extended Version)”
PERFORMER “Uriah Heep”
ISRC GBAJE0400464
INDEX 00 67:47:22
INDEX 01 67:49:51


Leave a Reply

Your email address will not be published. Required fields are marked *

This site uses Akismet to reduce spam. Learn how your comment data is processed.