Uriah Heep – Return To Fantasy




No Cover available


Artist: Uriah Heep
Year: 1975/1989
Genre: Rock
Notes: Discogs
Add. Notes:
Watch Songs on: YouTube
Cover incl.: Yes
Encoder: FLAC
Bitrate: ~800 kBit/s (44.1 kHz/16 Bit/s)
Log & Cue incl.: Yes/Yes
Size: 278,21 MB
Password: “slam” (without ” “)


All Downloads/Hosters are compatible

Download 1
KatFile.com
Turbobit.net
Rapidgator.net
FileFactory.com
Download 2
KatFile.com
Turbobit.net
Rapidgator.net
FileFactory.com

Tracklist:

1 Return To Fantasy 5:52
2 Shady Lady 4:46
3 Devil's Daughter 4:48
4 Beautiful Dream 4:52
5 Prima Donna 3:11
6 Your Turn To Remember 4:22
7 Showdown 4:17
8 Why Did You Go 3:53
9 A Year Or A Day 4:22

EAC-Log, CUE-Sheed & NFO:

Click to open spoiler
Exact Audio Copy V1.0 beta 2 from 29. April 2011

EAC extraction logfile from 6. October 2011, 17:22

Uriah Heep / Return to Fantasy

Used drive : Optiarc DVD RW AD-7240S Adapter: 1 ID: 0

Read mode : Secure
Utilize accurate stream : Yes
Defeat audio cache : Yes
Make use of C2 pointers : No

Read offset correction : 48
Overread into Lead-In and Lead-Out : No
Fill up missing offset samples with silence : Yes
Delete leading and trailing silent blocks : No
Null samples used in CRC calculations : Yes
Used interface : Native Win32 interface for Win NT & 2000

Used output format : User Defined Encoder
Selected bitrate : 1024 kBit/s
Quality : High
Add ID3 tag : Yes
Command line compressor : C:\Program Files\Exact Audio Copy\Flac\flac.exe
Additional command line options : -6 -V -T “ARTIST=%artist%” -T “TITLE=%title%” -T “ALBUM=%albumtitle%” -T “DATE=%year%” -T “TRACKNUMBER=%tracknr%” -T “GENRE=%genre%” -T “COMMENT=%comment%” %source% -o %dest%

TOC of the extracted CD

Track | Start | Length | Start sector | End sector
———————————————————
1 | 0:00.00 | 5:51.60 | 0 | 26384
2 | 5:51.60 | 4:47.67 | 26385 | 47976
3 | 10:39.52 | 4:50.08 | 47977 | 69734
4 | 15:29.60 | 4:53.07 | 69735 | 91716
5 | 20:22.67 | 3:10.40 | 91717 | 106006
6 | 23:33.32 | 4:22.45 | 106007 | 125701
7 | 27:56.02 | 4:19.68 | 125702 | 145194
8 | 32:15.70 | 3:55.15 | 145195 | 162834
9 | 36:11.10 | 4:25.30 | 162835 | 182739

Range status and errors

Selected range

Filename E:\music\Uriah Heep\Studio\1975. Return To Fantasy\1975. Return to Fantasy (Legacy Rec. LLMCD 3018, Sweden)\Uriah Heep – Return to Fantasy.wav

Peak level 97.3 %
Extraction speed 3.2 X
Range quality 99.9 %
Test CRC 9E78FF09
Copy CRC 9E78FF09
Copy OK

No errors occurred

AccurateRip summary

Track 1 not present in database
Track 2 not present in database
Track 3 not present in database
Track 4 not present in database
Track 5 not present in database
Track 6 not present in database
Track 7 not present in database
Track 8 not present in database
Track 9 not present in database

None of the tracks are present in the AccurateRip database

End of status report

==== Log checksum 891A46E78BB99A0B86988D86B9BB5F48EDD8DDB1C04FCBB93642A382E0C4BF6A ====

REM GENRE Rock
REM DATE 1975
REM DISCID 70098409
REM COMMENT “ExactAudioCopy v1.0b2”
PERFORMER “Uriah Heep”
TITLE “Return to Fantasy”
FILE “Uriah Heep – Return to Fantasy.flac” WAVE
TRACK 01 AUDIO
TITLE “Return to Fantasy”
PERFORMER “Uriah Heep”
INDEX 01 00:00:00
TRACK 02 AUDIO
TITLE “Shady Lady”
PERFORMER “Uriah Heep”
INDEX 01 05:51:60
TRACK 03 AUDIO
TITLE “Devil’s Daughter”
PERFORMER “Uriah Heep”
INDEX 01 10:39:52
TRACK 04 AUDIO
TITLE “Beautiful Dream”
PERFORMER “Uriah Heep”
INDEX 01 15:29:60
TRACK 05 AUDIO
TITLE “Prima Donna”
PERFORMER “Uriah Heep”
INDEX 01 20:22:67
TRACK 06 AUDIO
TITLE “Your Turn to Remember”
PERFORMER “Uriah Heep”
INDEX 01 23:33:32
TRACK 07 AUDIO
TITLE “Show Down”
PERFORMER “Uriah Heep”
INDEX 01 27:56:02
TRACK 08 AUDIO
TITLE “Why Did You Go?”
PERFORMER “Uriah Heep”
INDEX 00 32:14:60
INDEX 01 32:15:70
TRACK 09 AUDIO
TITLE “A Year or a Day”
PERFORMER “Uriah Heep”
INDEX 00 36:09:47
INDEX 01 36:11:10


0

Publication author

offline 5 days

Chaos

3
Comments: 4Publics: 3565Registration: 02-02-2019
Spread the Download

Leave a Reply

Your email address will not be published. Required fields are marked *

Enter the text from the image below
 

This site uses Akismet to reduce spam. Learn how your comment data is processed.