Uriah Heep – Raging Silence




Artist: Uriah Heep
Year: 1989
Genre: Rock
Notes: Discogs
Add. Notes:
Cover incl.: Yes
Encoder: FLAC
Bitrate: ~1000 kBit/s (44.1 kHz/16 Bit/s)
Log & Cue incl.: Yes
Size: 455,42 MB
Password: “slam” (without ” “)


All Downloads/Hosters are compatible

Download 1
Turbobit.net
NitroFlare.com
KatFile.com
Rapidgator.net
Download 2
Turbobit.net
NitroFlare.com
KatFile.com
Rapidgator.net

Tracklist:

1. Hold Your Head Up 
2. Blood Red Roses 
3. Voice On My TV 
4. Rich Kid 
5. Cry Freedom
6. Bad Bad Man 
7. More Fool You 
8. When The War Is Over 
9. Lifeline 
10. Rough Justice

EAC-Log, CUE-Sheed & NFO:

Click to open spoiler
Exact Audio Copy V1.0 beta 2 from 29. April 2011

EAC extraction logfile from 24. June 2011, 23:47

Uriah Heep / Raging Silence

Used drive : Optiarc DVD RW AD-7240S Adapter: 1 ID: 0

Read mode : Secure
Utilize accurate stream : Yes
Defeat audio cache : Yes
Make use of C2 pointers : No

Read offset correction : 48
Overread into Lead-In and Lead-Out : No
Fill up missing offset samples with silence : Yes
Delete leading and trailing silent blocks : No
Null samples used in CRC calculations : Yes
Used interface : Native Win32 interface for Win NT & 2000

Used output format : User Defined Encoder
Selected bitrate : 1024 kBit/s
Quality : High
Add ID3 tag : Yes
Command line compressor : C:\Program Files\Exact Audio Copy\Flac\flac.exe
Additional command line options : -6 -V -T “ARTIST=%artist%” -T “TITLE=%title%” -T “ALBUM=%albumtitle%” -T “DATE=%year%” -T “TRACKNUMBER=%tracknr%” -T “GENRE=%genre%” -T “COMMENT=%comment%” %source% -o %dest%

TOC of the extracted CD

Track | Start | Length | Start sector | End sector
———————————————————
1 | 0:00.00 | 4:33.35 | 0 | 20509
2 | 4:33.35 | 4:10.40 | 20510 | 39299
3 | 8:44.00 | 4:19.25 | 39300 | 58749
4 | 13:03.25 | 4:49.00 | 58750 | 80424
5 | 17:52.25 | 4:33.65 | 80425 | 100964
6 | 22:26.15 | 4:10.25 | 100965 | 119739
7 | 26:36.40 | 3:34.30 | 119740 | 135819
8 | 30:10.70 | 5:08.52 | 135820 | 158971
9 | 35:19.47 | 4:52.73 | 158972 | 180944
10 | 40:12.45 | 4:21.55 | 180945 | 200574

Range status and errors

Selected range

Filename E:\music\Uriah Heep\1989. Raging Silence\Uriah Heep – Raging Silence.wav

Peak level 91.2 %
Extraction speed 3.7 X
Range quality 100.0 %
Test CRC 4F2CADE1
Copy CRC 4F2CADE1
Copy OK

No errors occurred

AccurateRip summary

Track 1 accurately ripped (confidence 5) [FEA93C4F] (AR v1)
Track 2 accurately ripped (confidence 5) [475A9EE3] (AR v1)
Track 3 accurately ripped (confidence 5) [39AA2AB4] (AR v1)
Track 4 accurately ripped (confidence 5) [15AF2C27] (AR v1)
Track 5 accurately ripped (confidence 5) [650BE20C] (AR v1)
Track 6 accurately ripped (confidence 5) [067B02D2] (AR v1)
Track 7 accurately ripped (confidence 5) [F2802CE1] (AR v1)
Track 8 accurately ripped (confidence 5) [DFA301D4] (AR v1)
Track 9 accurately ripped (confidence 5) [0A25F8C2] (AR v1)
Track 10 accurately ripped (confidence 4) [BE086E22] (AR v1)

All tracks accurately ripped

End of status report

==== Log checksum 6A9E1277CDF3D3D87279E9A2CD8574FDFF8CC3E2E3368B91580B8C753D588531 ====

REM GENRE “Hard Rock”
REM DATE 1989
REM DISCID 810A720A
REM COMMENT “ExactAudioCopy v1.0b2”
PERFORMER “Uriah Heep”
TITLE “Raging Silence ”
FILE “Uriah Heep – Raging Silence.flac” WAVE
TRACK 01 AUDIO
TITLE “Hold Your Head Up”
PERFORMER “Uriah Heep”
INDEX 01 00:00:00
TRACK 02 AUDIO
TITLE “Blood Red Roses”
PERFORMER “Uriah Heep”
INDEX 00 04:32:25
INDEX 01 04:33:35
TRACK 03 AUDIO
TITLE “Voice On My TV”
PERFORMER “Uriah Heep”
INDEX 01 08:44:00
TRACK 04 AUDIO
TITLE “Rich Kid”
PERFORMER “Uriah Heep”
INDEX 00 13:02:62
INDEX 01 13:03:25
TRACK 05 AUDIO
TITLE “Cry Freedom”
PERFORMER “Uriah Heep”
INDEX 00 17:51:62
INDEX 01 17:52:25
TRACK 06 AUDIO
TITLE “Bad Bad Man”
PERFORMER “Uriah Heep”
INDEX 00 22:23:62
INDEX 01 22:26:15
TRACK 07 AUDIO
TITLE “More Fool You”
PERFORMER “Uriah Heep”
INDEX 00 26:34:67
INDEX 01 26:36:40
TRACK 08 AUDIO
TITLE “When The War Is Over”
PERFORMER “Uriah Heep”
INDEX 00 30:09:50
INDEX 01 30:10:70
TRACK 09 AUDIO
TITLE “Lifeline”
PERFORMER “Uriah Heep”
INDEX 00 35:18:50
INDEX 01 35:19:47
TRACK 10 AUDIO
TITLE “Rough Justice”
PERFORMER “Uriah Heep”
INDEX 00 40:11:25
INDEX 01 40:12:45


Leave a Reply

Your email address will not be published. Required fields are marked *

This site uses Akismet to reduce spam. Learn how your comment data is processed.