Uriah Heep – Raging Silence (Remastered)




Artist: Uriah Heep
Year: 1989/2006
Genre: Rock
Notes: Discogs
Add. Notes: Remastered
Cover incl.: Yes
Encoder: FLAC
Bitrate: ~1000 kBit/s (44.1 kHz/16 Bit/s)
Log & Cue incl.: Yes
Size: 630,9 MB
Password: “slam” (without ” “)


All Downloads/Hosters are compatible

Download 1
KatFile.com
Turbobit.net
Rapidgator.net
Download 2
KatFile.com
Turbobit.net
Rapidgator.net

Tracklist:

1 - Hold Your Head Up - 4:34
2 - Blood Red Roses - 4:11
3 - Voice On My TV - 4:20
4 - Rich Kid - 4:50
5 - Cry Freedom - 4:32
6 - Bad Bad Man - 4:10
7 - More Fool You - 3:35
8 - When The War Is Over - 5:09
9 - Lifeline - 4:53
10 - Rough Justice - 4:25
Bonus Tracks:
11 - Miracle Child - 4:11
12 - Corina - 3:48
13 - Mr. Majestic - 4:58
14 - Pacific Highway - 4:49
15 - Blood Red Roses (Extended Version) - 5:50
16 - Hold Your Head Up (Extended Version) - 6:14
17 - Corina (live) - 4:42

EAC-Log, CUE-Sheed & NFO:

Click to open spoiler
Exact Audio Copy V1.0 beta 3 from 29. August 2011

EAC extraction logfile from 2. December 2013, 15:31

URIAH HEEP / RAGING SILENCE (EXPANDED DELUXE EDITION)

Used drive : SONY BD RW BDX-S600U Adapter: 2 ID: 0

Read mode : Secure
Utilize accurate stream : Yes
Defeat audio cache : Yes
Make use of C2 pointers : No

Read offset correction : 48
Overread into Lead-In and Lead-Out : No
Fill up missing offset samples with silence : Yes
Delete leading and trailing silent blocks : No
Null samples used in CRC calculations : Yes
Used interface : Native Win32 interface for Win NT & 2000

Used output format : User Defined Encoder
Selected bitrate : 128 kBit/s
Quality : High
Add ID3 tag : No
Command line compressor : C:\Program Files (x86)\Exact Audio Copy\Flac\flac.exe
Additional command line options : -V -8 -T “Date=%year%” -T “Genre=%genre%” %source%

TOC of the extracted CD

Track | Start | Length | Start sector | End sector
———————————————————
1 | 0:00.00 | 4:35.20 | 0 | 20644
2 | 4:35.20 | 4:10.74 | 20645 | 39468
3 | 8:46.19 | 4:19.59 | 39469 | 58952
4 | 13:06.03 | 4:49.41 | 58953 | 80668
5 | 17:55.44 | 4:31.57 | 80669 | 101050
6 | 22:27.26 | 4:09.33 | 101051 | 119758
7 | 26:36.59 | 3:35.02 | 119759 | 135885
8 | 30:11.61 | 5:08.69 | 135886 | 159054
9 | 35:20.55 | 4:53.01 | 159055 | 181030
10 | 40:13.56 | 4:24.10 | 181031 | 200840
11 | 44:37.66 | 4:10.41 | 200841 | 219631
12 | 48:48.32 | 3:47.47 | 219632 | 236703
13 | 52:36.04 | 4:58.01 | 236704 | 259054
14 | 57:34.05 | 4:49.05 | 259055 | 280734
15 | 62:23.10 | 5:49.44 | 280735 | 306953
16 | 68:12.54 | 6:15.21 | 306954 | 335099
17 | 74:28.00 | 4:42.30 | 335100 | 356279

Range status and errors

Selected range

Filename D:\Uriah Heep – Discography\Studio\1989. Raging Silence\1989. Raging Silence De-luxe Edition (Sanctuary SMRCD323, EU)\URIAH HEEP – RAGING SILENCE (EXPANDED DELUXE EDITION).wav

Peak level 100.0 %
Extraction speed 7.0 X
Range quality 100.0 %
Test CRC 37285A55
Copy CRC 37285A55
Copy OK

No errors occurred

AccurateRip summary

Track 1 accurately ripped (confidence 2) [93FA5E71] (AR v1)
Track 2 accurately ripped (confidence 2) [0EFEC915] (AR v1)
Track 3 accurately ripped (confidence 2) [B2EC500B] (AR v1)
Track 4 accurately ripped (confidence 2) [2C505B5B] (AR v1)
Track 5 accurately ripped (confidence 2) [5D546D93] (AR v1)
Track 6 accurately ripped (confidence 2) [CAE13D43] (AR v1)
Track 7 accurately ripped (confidence 2) [373A9E11] (AR v1)
Track 8 accurately ripped (confidence 2) [917AC99F] (AR v1)
Track 9 accurately ripped (confidence 2) [8597B448] (AR v1)
Track 10 accurately ripped (confidence 2) [B86BAFC2] (AR v1)
Track 11 accurately ripped (confidence 2) [9EB05309] (AR v1)
Track 12 accurately ripped (confidence 2) [652CB502] (AR v1)
Track 13 accurately ripped (confidence 2) [2958FACB] (AR v1)
Track 14 accurately ripped (confidence 2) [B6CFBC80] (AR v1)
Track 15 accurately ripped (confidence 2) [9D4468F3] (AR v1)
Track 16 accurately ripped (confidence 2) [69299318] (AR v1)
Track 17 accurately ripped (confidence 2) [A3E9AE6A] (AR v1)

All tracks accurately ripped

End of status report

—- CUETools DB Plugin V2.1.3

[CTDB TOCID: 6EEshB2TBF5RsqYno9D4jXql.dM-] found, Submit result: 6EEshB2TBF5RsqYno9D4jXql.dM- has been confirmed
[84ca7330] (31/31) Accurately ripped

==== Log checksum 13226F2D8DBABF0E94D991C166966C2B499E6C8659B72EC0FB500C4B509B4AB3 ====

REM GENRE “Hard Rock”
REM DATE 1989
REM DISCID 0C128E11
REM COMMENT “ExactAudioCopy v1.0b3”
PERFORMER “URIAH HEEP”
TITLE “RAGING SILENCE (EXPANDED DELUXE EDITION)”
FILE “URIAH HEEP – RAGING SILENCE (EXPANDED DELUXE EDITION).flac” WAVE
TRACK 01 AUDIO
TITLE “Hold Your Head Up (2005 Remaster)”
PERFORMER “URIAH HEEP”
INDEX 01 00:00:00
TRACK 02 AUDIO
TITLE “Blood Red Roses (2005 Remaster)”
PERFORMER “URIAH HEEP”
INDEX 00 04:33:36
INDEX 01 04:35:20
TRACK 03 AUDIO
TITLE “Voice On My T.V. (2005 Remaster)”
PERFORMER “URIAH HEEP”
INDEX 00 08:44:41
INDEX 01 08:46:19
TRACK 04 AUDIO
TITLE “Rich Kid (2005 Remaster)”
PERFORMER “URIAH HEEP”
INDEX 00 13:04:16
INDEX 01 13:06:03
TRACK 05 AUDIO
TITLE “Cry Freedom (2005 Remaster)”
PERFORMER “URIAH HEEP”
INDEX 00 17:53:53
INDEX 01 17:55:44
TRACK 06 AUDIO
TITLE “Bad Bad Man (2005 Remaster)”
PERFORMER “URIAH HEEP”
INDEX 00 22:25:11
INDEX 01 22:27:26
TRACK 07 AUDIO
TITLE “More Fool You (2005 Remaster)”
PERFORMER “URIAH HEEP”
INDEX 00 26:34:71
INDEX 01 26:36:59
TRACK 08 AUDIO
TITLE “When The War Is Over (2005 Remaster)”
PERFORMER “URIAH HEEP”
INDEX 00 30:10:04
INDEX 01 30:11:61
TRACK 09 AUDIO
TITLE “Lifeline (2005 Remaster)”
PERFORMER “URIAH HEEP”
INDEX 00 35:19:23
INDEX 01 35:20:55
TRACK 10 AUDIO
TITLE “Rough Justice (2005 Remaster)”
PERFORMER “URIAH HEEP”
INDEX 00 40:11:62
INDEX 01 40:13:56
TRACK 11 AUDIO
TITLE “Miracle Child (B-Side ‘Hold Your Head Up’ Single)”
PERFORMER “URIAH HEEP”
INDEX 00 44:33:14
INDEX 01 44:37:66
TRACK 12 AUDIO
TITLE “Corina (Original Studio Demo Version)”
PERFORMER “URIAH HEEP”
INDEX 00 48:47:07
INDEX 01 48:48:32
TRACK 13 AUDIO
TITLE “Mr. Majestic (Original Studio Demo Version)”
PERFORMER “URIAH HEEP”
INDEX 00 52:35:26
INDEX 01 52:36:04
TRACK 14 AUDIO
TITLE “Pacific Highway (Original Studio Demo Version)”
PERFORMER “URIAH HEEP”
INDEX 00 57:33:42
INDEX 01 57:34:05
TRACK 15 AUDIO
TITLE “Blood Red Roses (Previously Unreleased Extended Version)”
PERFORMER “URIAH HEEP”
INDEX 00 62:21:15
INDEX 01 62:23:10
TRACK 16 AUDIO
TITLE “Hold Your Head Up (Previously Unreleased Extended Version)”
PERFORMER “URIAH HEEP”
INDEX 00 68:11:65
INDEX 01 68:12:54
TRACK 17 AUDIO
TITLE “Corina (Live Previously Unreleased Version)”
PERFORMER “URIAH HEEP”
INDEX 00 74:27:65
INDEX 01 74:28:00


Leave a Reply

Your email address will not be published. Required fields are marked *

This site uses Akismet to reduce spam. Learn how your comment data is processed.