Uriah Heep – Raging Silence




Artist: Uriah Heep
Year: 1989/1992
Genre: Rock
Notes: Discogs
Add. Notes:
Cover incl.: Yes
Encoder: FLAC
Bitrate: ~900 kBit/s (44.1 kHz/16 Bit/s)
Log & Cue incl.: Yes
Size: 415 MB
Password: “slam” (without ” “)


All Downloads/Hosters are compatible

Download 1
KatFile.com
Turbobit.net
Rapidgator.net
Download 2
KatFile.com
Turbobit.net
Rapidgator.net

Tracklist:

1 - Hold Your Head Up - 4:31
2 - Blood Red Roses - 4:10
3 - Voice On My TV - 4:17
4 - Rich Kid - 4:47
5 - Cry Freedom - 4:31
6 - Bad Bad Man - 4:08
7 - More Fool You - 3:32
8 - When The War Is Over - 5:07
9 - Lifeline - 4:51
10 - Rough Justice - 4:20

EAC-Log, CUE-Sheed & NFO:

Click to open spoiler
Exact Audio Copy V1.0 beta 2 from 29. April 2011

EAC extraction logfile from 29. December 2011, 13:59

Uriah Heep / Raging Silence (1971)

Used drive : Optiarc DVD RW AD-7240S Adapter: 1 ID: 0

Read mode : Secure
Utilize accurate stream : Yes
Defeat audio cache : Yes
Make use of C2 pointers : No

Read offset correction : 48
Overread into Lead-In and Lead-Out : No
Fill up missing offset samples with silence : Yes
Delete leading and trailing silent blocks : No
Null samples used in CRC calculations : Yes
Used interface : Native Win32 interface for Win NT & 2000

Used output format : User Defined Encoder
Selected bitrate : 1024 kBit/s
Quality : High
Add ID3 tag : Yes
Command line compressor : C:\Program Files\Exact Audio Copy\Flac\flac.exe
Additional command line options : -6 -V -T “ARTIST=%artist%” -T “TITLE=%title%” -T “ALBUM=%albumtitle%” -T “DATE=%year%” -T “TRACKNUMBER=%tracknr%” -T “GENRE=%genre%” -T “COMMENT=%comment%” %source% -o %dest%

TOC of the extracted CD

Track | Start | Length | Start sector | End sector
———————————————————
1 | 0:00.33 | 4:34.12 | 33 | 20594
2 | 4:34.45 | 4:10.45 | 20595 | 39389
3 | 8:45.15 | 4:19.25 | 39390 | 58839
4 | 13:04.40 | 4:48.63 | 58840 | 80502
5 | 17:53.28 | 4:34.55 | 80503 | 101107
6 | 22:28.08 | 4:10.65 | 101108 | 119922
7 | 26:38.73 | 3:34.27 | 119923 | 135999
8 | 30:13.25 | 5:08.48 | 136000 | 159147
9 | 35:21.73 | 4:53.02 | 159148 | 181124
10 | 40:15.00 | 4:21.58 | 181125 | 200757

Range status and errors

Selected range

Filename E:\music\Uriah Heep\Studio\1989. Raging Silence\1989. Raging Silence (Castle CLACD 277, Germany)\Uriah Heep – Raging Silence (1971).wav

Peak level 93.5 %
Extraction speed 3.7 X
Range quality 100.0 %
Test CRC 60B1C280
Copy CRC 60B1C280
Copy OK

No errors occurred

AccurateRip summary

Track 1 accurately ripped (confidence 3) [7AFEFDD3] (AR v1)
Track 2 accurately ripped (confidence 3) [002A00BA] (AR v1)
Track 3 accurately ripped (confidence 3) [EF2446C7] (AR v1)
Track 4 accurately ripped (confidence 3) [D0806533] (AR v1)
Track 5 accurately ripped (confidence 3) [C4B84437] (AR v1)
Track 6 accurately ripped (confidence 3) [66AEBC58] (AR v1)
Track 7 accurately ripped (confidence 3) [4B08C5F1] (AR v1)
Track 8 accurately ripped (confidence 3) [38702E77] (AR v1)
Track 9 accurately ripped (confidence 3) [0869F83E] (AR v1)
Track 10 accurately ripped (confidence 3) [1A4619C6] (AR v1)

All tracks accurately ripped

End of status report

==== Log checksum E589AD439F99C272A10E4C2EBB0E260EF91699782DB84415C7F58E834E39E543 ====

REM GENRE “Hard Rock”
REM DATE 1991
REM DISCID 760A740A
REM COMMENT “ExactAudioCopy v1.0b2”
PERFORMER “Uriah Heep”
TITLE “Raging Silence (1971)”
FILE “Uriah Heep – Raging Silence (1971).flac” WAVE
TRACK 01 AUDIO
TITLE “Hold Your Head Up”
PERFORMER “Uriah Heep”
INDEX 00 00:00:00
INDEX 01 00:00:33
TRACK 02 AUDIO
TITLE “Blood Red Roses”
PERFORMER “Uriah Heep”
INDEX 00 04:33:40
INDEX 01 04:34:45
TRACK 03 AUDIO
TITLE “Voice On My TV”
PERFORMER “Uriah Heep”
INDEX 01 08:45:15
TRACK 04 AUDIO
TITLE “Rich Kid”
PERFORMER “Uriah Heep”
INDEX 00 13:03:33
INDEX 01 13:04:40
TRACK 05 AUDIO
TITLE “Cry Freedom”
PERFORMER “Uriah Heep”
INDEX 00 17:52:30
INDEX 01 17:53:28
TRACK 06 AUDIO
TITLE “Bad Bad Man”
PERFORMER “Uriah Heep”
INDEX 00 22:24:58
INDEX 01 22:28:08
TRACK 07 AUDIO
TITLE “More Fool You”
PERFORMER “Uriah Heep”
INDEX 00 26:37:43
INDEX 01 26:38:73
TRACK 08 AUDIO
TITLE “When The War Is Over”
PERFORMER “Uriah Heep”
INDEX 00 30:12:35
INDEX 01 30:13:25
TRACK 09 AUDIO
TITLE “Lifeline”
PERFORMER “Uriah Heep”
INDEX 00 35:21:00
INDEX 01 35:21:73
TRACK 10 AUDIO
TITLE “Rough Justice”
PERFORMER “Uriah Heep”
INDEX 00 40:14:23
INDEX 01 40:15:00


Leave a Reply

Your email address will not be published. Required fields are marked *

This site uses Akismet to reduce spam. Learn how your comment data is processed.