Uriah Heep – Milestones




Artist: Uriah Heep
Year: 1989
Genre: Rock
Notes: Discogs
Add. Notes:
Cover incl.: Yes
Encoder: FLAC
Bitrate: ~700 kBit/s (44.1 kHz/16 Bit/s)
Log & Cue incl.: Yes
Size: 696,9 MB
Password: “slam” (without ” “)


All Downloads/Hosters are compatible

Download 1
KatFile.com
Turbobit.net
FileFactory.com
Rapidgator.net
Download 2
KatFile.com
Turbobit.net
FileFactory.com
Rapidgator.net

Tracklist:

1-1 Love Machine 
1-2 Easy Livin' 
1-3 Gypsy 
1-4 Sweet Lorraine 
1-5 The Wizard 
1-6 July Morning 
1-7 Rollin' On 
1-8 Firefly 
1-9 Bird Of Prey 
1-10 Rollin' The Rock 

2-1 The Other Side Of Midnight 
2-2 Return To Fantasy 
2-3 Feelings 
2-4 Been Away Too Long 
2-5 Rainbow Demon 
2-6 Look At Yourself 
2-7 What Should Be Done 
2-8 Lady In Black 
2-9 Wake Up (Set Your Sights) 
2-10 Love Is Blind 
2-11 Weekend Warriors 
2-12 Can't Keep A Good Band Down

EAC-Log, CUE-Sheed & NFO:

Click to open spoiler
Exact Audio Copy V1.0 beta 2 from 29. April 2011

EAC extraction logfile from 4. September 2011, 17:33

Uriah Heep / Milestones CD 1

Used drive : Optiarc DVD RW AD-7240S Adapter: 1 ID: 0

Read mode : Secure
Utilize accurate stream : Yes
Defeat audio cache : Yes
Make use of C2 pointers : No

Read offset correction : 48
Overread into Lead-In and Lead-Out : No
Fill up missing offset samples with silence : Yes
Delete leading and trailing silent blocks : No
Null samples used in CRC calculations : Yes
Used interface : Native Win32 interface for Win NT & 2000

Used output format : User Defined Encoder
Selected bitrate : 1024 kBit/s
Quality : High
Add ID3 tag : Yes
Command line compressor : C:\Program Files\Exact Audio Copy\Flac\flac.exe
Additional command line options : -6 -V -T “ARTIST=%artist%” -T “TITLE=%title%” -T “ALBUM=%albumtitle%” -T “DATE=%year%” -T “TRACKNUMBER=%tracknr%” -T “GENRE=%genre%” -T “COMMENT=%comment%” %source% -o %dest%

TOC of the extracted CD

Track | Start | Length | Start sector | End sector
———————————————————
1 | 0:00.32 | 3:42.00 | 32 | 16681
2 | 3:42.32 | 2:37.65 | 16682 | 28521
3 | 6:20.22 | 6:38.68 | 28522 | 58439
4 | 12:59.15 | 4:17.60 | 58440 | 77774
5 | 17:17.00 | 3:04.42 | 77775 | 91616
6 | 20:21.42 | 10:23.10 | 91617 | 138351
7 | 30:44.52 | 6:23.15 | 138352 | 167091
8 | 37:07.67 | 6:21.25 | 167092 | 195691
9 | 43:29.17 | 4:14.10 | 195692 | 214751
10 | 47:43.27 | 5:34.63 | 214752 | 239864

Range status and errors

Selected range

Filename E:\music\Uriah Heep\Compilations\1989. Milestones\CD1\Uriah Heep – Milestones CD 1.wav

Peak level 100.0 %
Extraction speed 3.8 X
Range quality 100.0 %
Test CRC 99518145
Copy CRC 99518145
Copy OK

No errors occurred

AccurateRip summary

Track 1 not present in database
Track 2 not present in database
Track 3 not present in database
Track 4 not present in database
Track 5 not present in database
Track 6 not present in database
Track 7 not present in database
Track 8 not present in database
Track 9 not present in database
Track 10 not present in database

None of the tracks are present in the AccurateRip database

End of status report

==== Log checksum D7535F369CE840339AA1591CA13619CAB138AE8A6C51E62DAA3E80ABD5F2695B ====

Exact Audio Copy V1.0 beta 2 from 29. April 2011

EAC extraction logfile from 5. September 2011, 12:05

Uriah Heep / Milestones CD 2

Used drive : Optiarc DVD RW AD-7240S Adapter: 1 ID: 0

Read mode : Secure
Utilize accurate stream : Yes
Defeat audio cache : Yes
Make use of C2 pointers : No

Read offset correction : 48
Overread into Lead-In and Lead-Out : No
Fill up missing offset samples with silence : Yes
Delete leading and trailing silent blocks : No
Null samples used in CRC calculations : Yes
Used interface : Native Win32 interface for Win NT & 2000

Used output format : User Defined Encoder
Selected bitrate : 1024 kBit/s
Quality : High
Add ID3 tag : Yes
Command line compressor : C:\Program Files\Exact Audio Copy\Flac\flac.exe
Additional command line options : -6 -V -T “ARTIST=%artist%” -T “TITLE=%title%” -T “ALBUM=%albumtitle%” -T “DATE=%year%” -T “TRACKNUMBER=%tracknr%” -T “GENRE=%genre%” -T “COMMENT=%comment%” %source% -o %dest%

TOC of the extracted CD

Track | Start | Length | Start sector | End sector
———————————————————
1 | 0:00.33 | 3:58.02 | 33 | 17884
2 | 3:58.35 | 5:49.53 | 17885 | 44112
3 | 9:48.13 | 5:23.42 | 44113 | 68379
4 | 15:11.55 | 5:06.35 | 68380 | 91364
5 | 20:18.15 | 4:22.45 | 91365 | 111059
6 | 24:40.60 | 5:09.10 | 111060 | 134244
7 | 29:49.70 | 4:16.48 | 134245 | 153492
8 | 34:06.43 | 4:43.27 | 153493 | 174744
9 | 38:49.70 | 6:22.43 | 174745 | 203437
10 | 45:12.38 | 3:39.40 | 203438 | 219902
11 | 48:52.03 | 3:51.40 | 219903 | 237267
12 | 52:43.43 | 3:49.15 | 237268 | 254457

Range status and errors

Selected range

Filename E:\music\Uriah Heep\Compilations\1989. Milestones\CD2\Uriah Heep – Milestones CD 2.wav

Peak level 100.0 %
Extraction speed 3.9 X
Range quality 100.0 %
Test CRC A0EF9C9D
Copy CRC A0EF9C9D
Copy OK

No errors occurred

AccurateRip summary

Track 1 accurately ripped (confidence 1) [C142ABF1] (AR v1)
Track 2 accurately ripped (confidence 1) [474028DB] (AR v1)
Track 3 accurately ripped (confidence 1) [C672B042] (AR v1)
Track 4 cannot be verified as accurate (confidence 1) [EE9D6F30], AccurateRip returned [E1DBE8DF] (AR v2)
Track 5 cannot be verified as accurate (confidence 1) [3A752763], AccurateRip returned [80E2E02E] (AR v2)
Track 6 accurately ripped (confidence 1) [924FFC7D] (AR v1)
Track 7 accurately ripped (confidence 1) [62E2699A] (AR v1)
Track 8 accurately ripped (confidence 1) [E2B30573] (AR v1)
Track 9 accurately ripped (confidence 1) [43D14274] (AR v1)
Track 10 accurately ripped (confidence 1) [A321B1C7] (AR v1)
Track 11 accurately ripped (confidence 1) [D0643DC0] (AR v1)
Track 12 accurately ripped (confidence 1) [23B1F660] (AR v1)

10 трек(и) скопированы точно
2 трек(и) не удалось проверить на точность

Some tracks could not be verified as accurate

End of status report

==== Log checksum 6550B99F3E6E3A087E8A52FFB3AA0AF574135D9D6425E6CD69858D697B5B6ADC ====

REM GENRE “Classic Rock”
REM DATE 1989
REM DISCID 7D0C7E0A
REM COMMENT “ExactAudioCopy v1.0b2”
PERFORMER “Uriah Heep”
TITLE “Milestones CD 1”
FILE “Uriah Heep – Milestones CD 1.flac” WAVE
TRACK 01 AUDIO
TITLE “Love Mashine”
PERFORMER “Uriah Heep”
INDEX 00 00:00:00
INDEX 01 00:00:32
TRACK 02 AUDIO
TITLE “Easy Livin'”
PERFORMER “Uriah Heep”
INDEX 00 03:39:55
INDEX 01 03:42:32
TRACK 03 AUDIO
TITLE “Gypsy”
PERFORMER “Uriah Heep”
INDEX 00 06:18:52
INDEX 01 06:20:22
TRACK 04 AUDIO
TITLE “Sweet Lorraine”
PERFORMER “Uriah Heep”
INDEX 00 12:59:02
INDEX 01 12:59:15
TRACK 05 AUDIO
TITLE “The Wizzard”
PERFORMER “Uriah Heep”
INDEX 00 17:13:60
INDEX 01 17:17:00
TRACK 06 AUDIO
TITLE “July Morning”
PERFORMER “Uriah Heep”
INDEX 00 20:17:50
INDEX 01 20:21:42
TRACK 07 AUDIO
TITLE “Rollin’ On”
PERFORMER “Uriah Heep”
INDEX 00 30:43:57
INDEX 01 30:44:52
TRACK 08 AUDIO
TITLE “Firefly”
PERFORMER “Uriah Heep”
INDEX 00 37:07:00
INDEX 01 37:07:67
TRACK 09 AUDIO
TITLE “Bird Of Prey”
PERFORMER “Uriah Heep”
INDEX 00 43:25:70
INDEX 01 43:29:17
TRACK 10 AUDIO
TITLE “Rollin’ The Rock”
PERFORMER “Uriah Heep”
INDEX 00 47:41:52
INDEX 01 47:43:27

REM GENRE “Classic Rock”
REM DATE 1989
REM DISCID 8F0D400C
REM COMMENT “ExactAudioCopy v1.0b2”
PERFORMER “Uriah Heep”
TITLE “Milestones CD 2”
FILE “Uriah Heep – Milestones CD 2.flac” WAVE
TRACK 01 AUDIO
TITLE “The Other Side Of Midnight”
PERFORMER “Uriah Heep”
INDEX 00 00:00:00
INDEX 01 00:00:33
TRACK 02 AUDIO
TITLE “Return To Fantasy”
PERFORMER “Uriah Heep”
INDEX 00 03:57:05
INDEX 01 03:58:35
TRACK 03 AUDIO
TITLE “Feelings”
PERFORMER “Uriah Heep”
INDEX 01 09:48:13
TRACK 04 AUDIO
TITLE “Been Away Too Long”
PERFORMER “Uriah Heep”
INDEX 00 15:11:05
INDEX 01 15:11:55
TRACK 05 AUDIO
TITLE “Rainbow Demon”
PERFORMER “Uriah Heep”
INDEX 00 20:14:43
INDEX 01 20:18:15
TRACK 06 AUDIO
TITLE “Look At Yourself”
PERFORMER “Uriah Heep”
INDEX 00 24:38:28
INDEX 01 24:40:60
TRACK 07 AUDIO
TITLE “What Should Be Done”
PERFORMER “Uriah Heep”
INDEX 00 29:47:48
INDEX 01 29:49:70
TRACK 08 AUDIO
TITLE “Lady In Black”
PERFORMER “Uriah Heep”
INDEX 00 34:02:58
INDEX 01 34:06:43
TRACK 09 AUDIO
TITLE “Wake Up (Set Your Sights)”
PERFORMER “Uriah Heep”
INDEX 00 38:46:00
INDEX 01 38:49:70
TRACK 10 AUDIO
TITLE “Live Is Blind”
PERFORMER “Uriah Heep”
INDEX 00 45:11:65
INDEX 01 45:12:38
TRACK 11 AUDIO
TITLE “Weekend Warriors”
PERFORMER “Uriah Heep”
INDEX 01 48:52:03
TRACK 12 AUDIO
TITLE “You Can’t Keep A Good Band Down”
PERFORMER “Uriah Heep”
INDEX 00 52:42:63
INDEX 01 52:43:43


Leave a Reply

Your email address will not be published. Required fields are marked *

This site uses Akismet to reduce spam. Learn how your comment data is processed.