Uriah Heep – Look At Yourself




Artist: Uriah Heep
Year: 1971/1987
Genre: Rock
Notes: Discogs
Add. Notes:
Cover incl.: Yes
Encoder: FLAC
Bitrate: ~800 kBit/s (44.1 kHz/16 Bit/s)
Log & Cue incl.: Yes
Size: 319,11 MB
Password: “slam” (without ” “)


All Downloads/Hosters are compatible

Download 1
Turbobit.net
KatFile.com
Rapidgator.net
NitroFlare.com
Download 2
Turbobit.net
KatFile.com
Rapidgator.net
NitroFlare.com

Tracklist:

1. Look At Yourself	
2. I Wanna Be Free	
3. July Morning	
4. Tears In My Eyes	
5. Shadows Of Grief	
6. What Should Be Done	
7. Love Machine

EAC-Log, CUE-Sheed & NFO:

Click to open spoiler
REM GENRE Rock
REM DATE 1971
REM DISCID 5309B107
REM COMMENT “ExactAudioCopy v1.0b2”
PERFORMER “Uriah Heep”
TITLE “Look At Yourself”
FILE “Uriah Heep – Look At Yourself.flac” WAVE
TRACK 01 AUDIO
TITLE “Look at yourself”
PERFORMER “Uriah HeepExact Audio Copy V1.0 beta 2 from 29. April 2011

EAC extraction logfile from 4. September 2011, 11:54

Uriah Heep / Look At Yourself

Used drive : Optiarc DVD RW AD-7240S Adapter: 1 ID: 0

Read mode : Secure
Utilize accurate stream : Yes
Defeat audio cache : Yes
Make use of C2 pointers : No

Read offset correction : 48
Overread into Lead-In and Lead-Out : No
Fill up missing offset samples with silence : Yes
Delete leading and trailing silent blocks : No
Null samples used in CRC calculations : Yes
Used interface : Native Win32 interface for Win NT & 2000

Used output format : User Defined Encoder
Selected bitrate : 1024 kBit/s
Quality : High
Add ID3 tag : Yes
Command line compressor : C:\Program Files\Exact Audio Copy\Flac\flac.exe
Additional command line options : -6 -V -T “ARTIST=%artist%” -T “TITLE=%title%” -T “ALBUM=%albumtitle%” -T “DATE=%year%” -T “TRACKNUMBER=%tracknr%” -T “GENRE=%genre%” -T “COMMENT=%comment%” %source% -o %dest%

TOC of the extracted CD

Track | Start | Length | Start sector | End sector
———————————————————
1 | 0:00.33 | 5:11.50 | 33 | 23407
2 | 5:12.08 | 4:00.50 | 23408 | 41457
3 | 9:12.58 | 10:34.00 | 41458 | 89007
4 | 19:46.58 | 5:01.00 | 89008 | 111582
5 | 24:47.58 | 8:41.25 | 111583 | 150682
6 | 33:29.08 | 4:14.00 | 150683 | 169732
7 | 37:43.08 | 3:38.07 | 169733 | 186089

Range status and errors

Selected range

Filename E:\music\Uriah Heep\1971. Look at Yourself\1971.Look At Yourself (Bronze Rec. 260 138, Germany)\Uriah Heep – Look At Yourself.wav

Peak level 87.0 %
Extraction speed 3.6 X
Range quality 100.0 %
Test CRC 80E3A376
Copy CRC 80E3A376
Copy OK

No errors occurred

AccurateRip summary

Track 1 accurately ripped (confidence 4) [33F6F20D] (AR v2)
Track 2 accurately ripped (confidence 4) [E2CE827C] (AR v2)
Track 3 accurately ripped (confidence 3) [AA61D5ED] (AR v2)
Track 4 accurately ripped (confidence 3) [A320ACE8] (AR v2)
Track 5 accurately ripped (confidence 4) [5EE91916] (AR v2)
Track 6 accurately ripped (confidence 4) [BAD812D9] (AR v2)
Track 7 accurately ripped (confidence 4) [8A7568C4] (AR v2)

All tracks accurately ripped

End of status report

==== Log checksum A14D2E86B894F96BE7FE90A8365BEA24632EF7EC6489F90CF9BAFEA0AA8B7B75 ====

INDEX 00 00:00:00
INDEX 01 00:00:33
TRACK 02 AUDIO
TITLE “I wanna be free”
PERFORMER “Uriah Heep”
INDEX 00 05:10:70
INDEX 01 05:12:08
TRACK 03 AUDIO
TITLE “July morning”
PERFORMER “Uriah Heep”
INDEX 00 09:12:10
INDEX 01 09:12:58
TRACK 04 AUDIO
TITLE “Tears in my eyes”
PERFORMER “Uriah Heep”
INDEX 00 19:45:38
INDEX 01 19:46:58
TRACK 05 AUDIO
TITLE “Shadows of Grief”
PERFORMER “Uriah Heep”
INDEX 00 24:47:05
INDEX 01 24:47:58
TRACK 06 AUDIO
TITLE “What should be done”
PERFORMER “Uriah Heep”
INDEX 00 33:27:13
INDEX 01 33:29:08
TRACK 07 AUDIO
TITLE “Love machine”
PERFORMER “Uriah Heep”
INDEX 01 37:43:08


Leave a Reply

Your email address will not be published. Required fields are marked *

This site uses Akismet to reduce spam. Learn how your comment data is processed.