Uriah Heep – Look At Yourself (Remastered Deluxe Edition)




Artist: Uriah Heep
Year: 1971/2008
Genre: Rock
Notes: Discogs
Add. Notes: Remastered Deluxe Edition
Cover incl.: Yes
Encoder: FLAC
Bitrate: ~800 kBit/s (44.1 kHz/16 Bit/s)
Log & Cue incl.: Yes/Yes
Password: “slam” (without ” “)


All Downloads/Hosters are compatible

Download 1
KatFile.com
Turbobit.net
FileFactory.com
Rapidgator.net
Download 2
KatFile.com
Turbobit.net
FileFactory.com
Rapidgator.net

Tracklist:

1 Look At Yourself 5:11
2 I Wanna Be Free 4:01
3 July Morning 10:32
4 Tears In My Eyes 5:01
5 Shadows Of Grief 8:39
6 What Should Be Done 4:13
7 Love Machine 3:42

Bonus Tracks
8 What's Within My Heart (Out-Take From Look At 
Yourself Sessions) 5:24
9 Why (Look At Yourself Out-Take) 11:18
10 Look At Yourself (Alternative Single Version) 3:19
11 Tears In My Eyes (Extended Version, Previously 
Unreleased) 5:38
12 What Should Be Done (Out-Take, Original Studio 
Version) 4:26
13 Look At Yourself (BBC Session, Previously Unreleased) 
4:32
14 What Should Be Done (BBC Session, Previously 
Unreleased) 3:26

EAC-Log, CUE-Sheed & NFO:

Click to open spoiler
Exact Audio Copy V1.0 beta 3 from 29. August 2011

EAC extraction logfile from 4. November 2013, 11:38

Uriah Heep / Look At Yourself – Remastered

Used drive : SONY BD RW BDX-S600U Adapter: 2 ID: 0

Read mode : Secure
Utilize accurate stream : Yes
Defeat audio cache : Yes
Make use of C2 pointers : No

Read offset correction : 48
Overread into Lead-In and Lead-Out : No
Fill up missing offset samples with silence : Yes
Delete leading and trailing silent blocks : No
Null samples used in CRC calculations : Yes
Used interface : Native Win32 interface for Win NT & 2000

Used output format : User Defined Encoder
Selected bitrate : 128 kBit/s
Quality : High
Add ID3 tag : No
Command line compressor : C:\Program Files (x86)\Exact Audio Copy\Flac\flac.exe
Additional command line options : -V -8 -T “Date=%year%” -T “Genre=%genre%” %source%

TOC of the extracted CD

Track | Start | Length | Start sector | End sector
———————————————————
1 | 0:00.00 | 5:11.43 | 0 | 23367
2 | 5:11.43 | 4:01.06 | 23368 | 41448
3 | 9:12.49 | 10:32.69 | 41449 | 88917
4 | 19:45.43 | 5:01.44 | 88918 | 111536
5 | 24:47.12 | 8:39.62 | 111537 | 150523
6 | 33:26.74 | 4:13.20 | 150524 | 169518
7 | 37:40.19 | 3:42.39 | 169519 | 186207
8 | 41:22.58 | 5:24.32 | 186208 | 210539
9 | 46:47.15 | 11:18.31 | 210540 | 261420
10 | 58:05.46 | 3:19.24 | 261421 | 276369
11 | 61:24.70 | 5:38.13 | 276370 | 301732
12 | 67:03.08 | 4:26.45 | 301733 | 321727
13 | 71:29.53 | 4:32.39 | 321728 | 342166
14 | 76:02.17 | 3:26.50 | 342167 | 357666

Range status and errors

Selected range

Filename D:\Uriah Heep – Discography\Studio\1971. Look at Yourself\1971. Look At Yourself Expanded De-Luxe Edition (Sanctuary SMRCD050,Germany)\Uriah Heep – Look At Yourself – Remastered.wav

Peak level 100.0 %
Extraction speed 7.0 X
Range quality 100.0 %
Test CRC 9FFA52BC
Copy CRC 9FFA52BC
Copy OK

No errors occurred

AccurateRip summary

Track 1 accurately ripped (confidence 28) [A52648AB] (AR v2)
Track 2 accurately ripped (confidence 28) [DB0CE45F] (AR v2)
Track 3 accurately ripped (confidence 28) [44B9BD84] (AR v2)
Track 4 accurately ripped (confidence 28) [3AF8C082] (AR v2)
Track 5 accurately ripped (confidence 28) [A58C0E47] (AR v2)
Track 6 accurately ripped (confidence 28) [4D45A3BD] (AR v2)
Track 7 accurately ripped (confidence 28) [7F12EEA3] (AR v2)
Track 8 accurately ripped (confidence 26) [90C62F07] (AR v2)
Track 9 accurately ripped (confidence 26) [988D48A3] (AR v2)
Track 10 accurately ripped (confidence 26) [ECE40A68] (AR v2)
Track 11 accurately ripped (confidence 26) [E6F535B8] (AR v2)
Track 12 accurately ripped (confidence 26) [0AA05BB1] (AR v2)
Track 13 accurately ripped (confidence 25) [543967BD] (AR v2)
Track 14 accurately ripped (confidence 25) [C1EDCCE4] (AR v2)

All tracks accurately ripped

End of status report

—- CUETools DB Plugin V2.1.3

[CTDB TOCID: ykM_DGn_tInM88pv3.eEDTgPPl0-] found, Submit result: ykM_DGn_tInM88pv3.eEDTgPPl0- has been confirmed
[55158c3c] (50/61) Accurately ripped
[3afb9e25] (06/61) No match
[9b5933e2] (01/61) No match
[71792ded] (01/61) No match
[4e065eb1] (01/61) No match
[808ac066] (01/61) No match
[56d1b7c4] (01/61) No match

==== Log checksum 97D54F2AF88BE05691A8DF81B71D5D4F6B4BE58ADE64F9FFF23D8B7D8A291806 ====

REM GENRE “Hard Rock”
REM DATE 2004
REM DISCID D412A00E
REM COMMENT “ExactAudioCopy v1.0b3”
CATALOG 5050749205025
PERFORMER “Uriah Heep”
TITLE “Look At Yourself – Remastered”
FILE “Uriah Heep – Look At Yourself – Remastered.flac” WAVE
TRACK 01 AUDIO
TITLE “Look At Yourself”
PERFORMER “Uriah Heep”
ISRC USMR17187059
INDEX 01 00:00:00
TRACK 02 AUDIO
TITLE “I Wanna Be Free”
PERFORMER “Uriah Heep”
ISRC USIR20080204
INDEX 00 05:08:63
INDEX 01 05:11:43
TRACK 03 AUDIO
TITLE “July Morning”
PERFORMER “Uriah Heep”
ISRC USMR17187060
INDEX 00 09:10:43
INDEX 01 09:12:49
TRACK 04 AUDIO
TITLE “Tears In My Eyes”
PERFORMER “Uriah Heep”
ISRC USMR17187061
INDEX 00 19:42:46
INDEX 01 19:45:43
TRACK 05 AUDIO
TITLE “Shadows Of Grief”
PERFORMER “Uriah Heep”
ISRC USIR20080205
INDEX 00 24:44:36
INDEX 01 24:47:12
TRACK 06 AUDIO
TITLE “What Should Be Done”
PERFORMER “Uriah Heep”
ISRC USIR20080206
INDEX 00 33:24:59
INDEX 01 33:26:74
TRACK 07 AUDIO
TITLE “Love Machine”
PERFORMER “Uriah Heep”
ISRC USMR17187062
INDEX 00 37:39:70
INDEX 01 37:40:19
TRACK 08 AUDIO
TITLE “What’s Within My Heart (Look At Yourself Out-Take) – Bonus Track”
PERFORMER “Uriah Heep”
ISRC GBAJE0611907
INDEX 00 41:17:38
INDEX 01 41:22:58
TRACK 09 AUDIO
TITLE “Why (Look At Yourself Out-Take) – Bonus Track”
PERFORMER “Uriah Heep”
ISRC GBAJE0611908
INDEX 00 46:45:40
INDEX 01 46:47:15
TRACK 10 AUDIO
TITLE “Look At Yourself (Alternative Single Version) – Bonus Track”
PERFORMER “Uriah Heep”
ISRC GBAJE0705534
INDEX 00 58:03:23
INDEX 01 58:05:46
TRACK 11 AUDIO
TITLE “Tears In My Eyes (Extended Version) – Bonus Track”
PERFORMER “Uriah Heep”
ISRC GBAJE0300088
INDEX 00 61:23:54
INDEX 01 61:24:70
TRACK 12 AUDIO
TITLE “What Should Be Done (Out-Take, Original Studio Version) – Bonus Track”
PERFORMER “Uriah Heep”
ISRC GBAJE0611909
INDEX 00 67:00:46
INDEX 01 67:03:08
TRACK 13 AUDIO
TITLE “Look At Yourself (BBC Session) – Bonus Track”
PERFORMER “Uriah Heep”
ISRC GBUM70814869
INDEX 00 71:27:37
INDEX 01 71:29:53
TRACK 14 AUDIO
TITLE “What Should Be Done (BBC Session) – Bonus Track”
PERFORMER “Uriah Heep”
ISRC GBUM70814870
INDEX 00 75:59:56
INDEX 01 76:02:17


Leave a Reply

Your email address will not be published. Required fields are marked *

Enter the text from the image below
 

This site uses Akismet to reduce spam. Learn how your comment data is processed.