Uriah Heep – Look at yourself (Japanese Edition)




No Cover available

Artist: Uriah Heep
Year: 1971/1986
Genre: Rock
Notes: Discogs
Add. Notes: Japanese Edition
Watch Songs on: YouTube
Cover incl.: Yes
Encoder: FLAC
Bitrate: ~800 kBit/s (44.1 kHz/16 Bit/s)
Log & Cue incl.: Yes/Yes
Size: 247,7 MB
Password: “slam” (without ” “)


All Downloads/Hosters are compatible

Download 1
KatFile.com
Turbobit.net
Rapidgator.net
FileFactory.com
Download 2
KatFile.com
Turbobit.net
Rapidgator.net
FileFactory.com

Tracklist:

1 Look At Yourself 
2 I Wanna Be Free 
3 July Morning 
4 Tears In My Eyes 
5 Shadows Of Grief 
6 What Should Be Done 
7 Love Machine

EAC-Log, CUE-Sheed & NFO:

Click to open spoiler
Exact Audio Copy V0.99 prebeta 5 from 4. May 2009

Отчёт EAC об извлечении, выполненном 7. декабря 2010, 23:09

Uriah Heep / Look at yourself

Дисковод: HL-DT-STDVDRAM GSA-T20N Adapter: 1 ID: 0

Режим чтения : Достоверность
Использование точного потока : Да
Отключение кэша аудио : Да
Использование указателей C2 : Нет

Коррекция смещения при чтении : 667
Способность читать области Lead-in и Lead-out : Нет
Заполнение пропущенных сэмплов тишиной : Да
Удаление блоков с тишиной в начале и конце : Нет
При вычислениях CRC использовались нулевые сэмплы : Да
Интерфейс : Встроенный Win32-интерфейс для Win NT/2000

Выходной формат : Пользовательский кодировщик
Выбранный битрейт : 768 kBit/s
Качество : Высокий
Добавление ID3-тэга : Нет
Утилита сжатия : C:\Program Files\Exact Audio Copy\FLAC\FLAC.EXE
Дополнительные параметры : -8 -V %s

TOC извлечённого CD

Трек | Старт | Длительность | Начальный сектор | Конечный сектор
———————————————————————
1 | 0:00.37 | 5:11.00 | 37 | 23361
2 | 5:11.37 | 4:00.28 | 23362 | 41389
3 | 9:11.65 | 10:36.12 | 41390 | 89101
4 | 19:48.02 | 5:00.25 | 89102 | 111626
5 | 24:48.27 | 8:50.58 | 111627 | 151434
6 | 33:39.10 | 4:24.25 | 151435 | 171259
7 | 38:03.35 | 3:49.52 | 171260 | 188486

Характеристики диапазона извлечения и сообщения об ошибках

Выбранный диапазон

Имя файла D:\uTorrent.compl\Uriah Heep – ‘Look At Yourself’ 1971 & ‘Demons And Wizads’ 1972 ( Japan 1st Press )\’Look At Yourself’ 1971 ( Victor VDP-1148 )\Uriah Heep – Look at yourself.wav

Пиковый уровень 94.6 %
Качество диапазона 99.9 %
CRC теста 3CAACDD6
CRC копии 3CAACDD6
Копирование… OK

Ошибок не произошло

AccurateRip: сводка

Трек 1 нет в базе данных
Трек 2 нет в базе данных
Трек 3 нет в базе данных
Трек 4 нет в базе данных
Трек 5 нет в базе данных
Трек 6 нет в базе данных
Трек 7 нет в базе данных

Ни одного трека нет в базе AccurateRip

Конец отчёта

REM DISCID 4509D107
REM COMMENT “ExactAudioCopy v0.99pb5”
PERFORMER “Uriah Heep”
TITLE “Look at yourself”
FILE “Uriah Heep – Look at yourself.flac” WAVE
TRACK 01 AUDIO
TITLE “Look at Yourself”
PERFORMER “Uriah Heep”
INDEX 00 00:00:00
INDEX 01 00:00:37
TRACK 02 AUDIO
TITLE “Wanna be free”
PERFORMER “Uriah Heep”
INDEX 00 05:10:10
INDEX 01 05:11:37
TRACK 03 AUDIO
TITLE “July Morning”
PERFORMER “Uriah Heep”
INDEX 00 09:11:02
INDEX 01 09:11:65
TRACK 04 AUDIO
TITLE “Tears in my Eyes”
PERFORMER “Uriah Heep”
INDEX 00 19:46:40
INDEX 01 19:48:02
TRACK 05 AUDIO
TITLE “Shadows of Grief”
PERFORMER “Uriah Heep”
INDEX 00 24:48:20
INDEX 01 24:48:27
TRACK 06 AUDIO
TITLE “What should be done”
PERFORMER “Uriah Heep”
INDEX 00 33:38:55
INDEX 01 33:39:10
TRACK 07 AUDIO
TITLE “Love Machine”
PERFORMER “Uriah Heep”
INDEX 01 38:03:35


Leave a Reply

Your email address will not be published. Required fields are marked *

Enter the text from the image below
 

This site uses Akismet to reduce spam. Learn how your comment data is processed.