Uriah Heep – Live In Moscow




Artist: Uriah Heep
Year: 1988
Genre: Rock
Notes: Discogs
Add. Notes:
Cover incl.: Yes
Encoder: FLAC
Bitrate: ~900 kBit/s (44.1 kHz/16 Bit/s)
Log & Cue incl.: Yes
Size: 407 MB
Password: “slam” (without ” “)


All Downloads/Hosters are compatible

Download 1
KatFile.com
Turbobit.net
FileFactory.com
Rapidgator.net
Download 2
KatFile.com
Turbobit.net
FileFactory.com
Rapidgator.net

Tracklist:

1 Bird Of Prey
2 Stealin'
3 Too Scared To Run
4 Corina
5 Mister Majestic
6 The Wizard 
7 July Morning 
8 Easy Livin' 
9 That's The Way It Is
10 Pacific Highway 
11 Gypsy

EAC-Log, CUE-Sheed & NFO:

Click to open spoiler
Exact Audio Copy V1.0 beta 3 from 29. August 2011

EAC extraction logfile from 11. June 2014, 0:25

Uriah Heep / Live In Moscow

Used drive : SONY BD RW BDX-S600U Adapter: 2 ID: 1

Read mode : Secure
Utilize accurate stream : Yes
Defeat audio cache : Yes
Make use of C2 pointers : No

Read offset correction : 48
Overread into Lead-In and Lead-Out : No
Fill up missing offset samples with silence : Yes
Delete leading and trailing silent blocks : No
Null samples used in CRC calculations : Yes
Used interface : Native Win32 interface for Win NT & 2000

Used output format : User Defined Encoder
Selected bitrate : 128 kBit/s
Quality : High
Add ID3 tag : No
Command line compressor : C:\Program Files (x86)\Exact Audio Copy\Flac\flac.exe
Additional command line options : -V -8 -T “Date=%year%” -T “Genre=%genre%” %source%

TOC of the extracted CD

Track | Start | Length | Start sector | End sector
———————————————————
1 | 0:00.00 | 4:53.00 | 0 | 21974
2 | 4:53.00 | 5:40.60 | 21975 | 47534
3 | 10:33.60 | 4:10.57 | 47535 | 66341
4 | 14:44.42 | 4:09.48 | 66342 | 85064
5 | 18:54.15 | 5:57.50 | 85065 | 111889
6 | 24:51.65 | 4:50.47 | 111890 | 133686
7 | 29:42.37 | 8:56.30 | 133687 | 173916
8 | 38:38.67 | 3:22.08 | 173917 | 189074
9 | 42:01.00 | 4:09.42 | 189075 | 207791
10 | 46:10.42 | 5:31.05 | 207792 | 232621
11 | 51:41.47 | 8:38.40 | 232622 | 271511

Range status and errors

Selected range

Filename D:\Uriah Heep – Discography\Live\1988. Live In Moscow\1988. Live In Moscow (Legacy INT 848.811,Germany)\Uriah Heep – Live In Moscow.wav

Peak level 100.0 %
Extraction speed 6.9 X
Range quality 100.0 %
Test CRC 5C19FA92
Copy CRC 5C19FA92
Copy OK

No errors occurred

AccurateRip summary

Track 1 accurately ripped (confidence 3) [21A8F04F] (AR v2)
Track 2 accurately ripped (confidence 2) [A9F40739] (AR v2)
Track 3 accurately ripped (confidence 3) [7B345DD2] (AR v2)
Track 4 accurately ripped (confidence 3) [3902B4B9] (AR v2)
Track 5 accurately ripped (confidence 3) [028A6AF5] (AR v2)
Track 6 accurately ripped (confidence 2) [9A2EFB69] (AR v2)
Track 7 accurately ripped (confidence 3) [0C244C6D] (AR v2)
Track 8 accurately ripped (confidence 3) [0CDAC236] (AR v2)
Track 9 accurately ripped (confidence 3) [576AB528] (AR v2)
Track 10 accurately ripped (confidence 2) [B79A5400] (AR v2)
Track 11 accurately ripped (confidence 2) [E03003CC] (AR v2)

All tracks accurately ripped

End of status report

—- CUETools DB Plugin V2.1.4

[CTDB TOCID: buYmSYCB2sVdVGs051MYfjwiSkQ-] found
Submit result: buYmSYCB2sVdVGs051MYfjwiSkQ- has been confirmed
Track | CTDB Status
1 | (3/3) Accurately ripped
2 | (3/3) Accurately ripped
3 | (3/3) Accurately ripped
4 | (3/3) Accurately ripped
5 | (3/3) Accurately ripped
6 | (3/3) Accurately ripped
7 | (3/3) Accurately ripped
8 | (3/3) Accurately ripped
9 | (3/3) Accurately ripped
10 | (3/3) Accurately ripped
11 | (3/3) Accurately ripped

==== Log checksum 5D3BFF4CB4B0BD80AEA3CCD2E407D9FFE7DD83D38CCC6622B215192977DFE8E2 ====

REM GENRE Rock
REM DATE 1988
REM DISCID 920E240B
REM COMMENT “ExactAudioCopy v1.0b3”
CATALOG 0000000000000
PERFORMER “Uriah Heep”
TITLE “Live In Moscow”
FILE “Uriah Heep – Live In Moscow.flac” WAVE
TRACK 01 AUDIO
TITLE “Bird Of Prey – Хищная Лтица”
PERFORMER “Uriah Heep”
INDEX 01 00:00:00
TRACK 02 AUDIO
TITLE “Stealin’ – Крадущий”
PERFORMER “Uriah Heep”
INDEX 01 04:53:00
TRACK 03 AUDIO
TITLE “Too Scared To Run – Сдишком Ислутанный Чтобы Убегать”
PERFORMER “Uriah Heep”
INDEX 01 10:33:60
TRACK 04 AUDIO
TITLE “Corina – Корина”
PERFORMER “Uriah Heep”
INDEX 01 14:44:42
TRACK 05 AUDIO
TITLE “Mister Majestic – Господин Величественный”
PERFORMER “Uriah Heep”
INDEX 00 18:54:14
INDEX 01 18:54:15
TRACK 06 AUDIO
TITLE “The Wizard – Чародей”
PERFORMER “Uriah Heep”
INDEX 01 24:51:65
TRACK 07 AUDIO
TITLE “July Morning – Июльское Утро”
PERFORMER “Uriah Heep”
INDEX 01 29:42:37
TRACK 08 AUDIO
TITLE “Easy Livin’ – Угодная Жизнь”
PERFORMER “Uriah Heep”
INDEX 01 38:38:67
TRACK 09 AUDIO
TITLE “That’s The Way That It Is – Как Бывает”
PERFORMER “Uriah Heep”
INDEX 01 42:01:00
TRACK 10 AUDIO
TITLE “Pacific Highway – Тихоокеанская Магистраль”
PERFORMER “Uriah Heep”
INDEX 01 46:10:42
TRACK 11 AUDIO
TITLE “Gypsy (Extra Track)”
PERFORMER “Uriah Heep”
INDEX 01 51:41:47


Leave a Reply

Your email address will not be published. Required fields are marked *

This site uses Akismet to reduce spam. Learn how your comment data is processed.