Uriah Heep – Live In Europe 1979




No Cover available


Artist: Uriah Heep
Year: 1987
Genre: Rock
Notes: Discogs
Add. Notes:
Watch Songs on: YouTube
Cover incl.: Yes
Encoder: FLAC
Bitrate: ~900 kBit/s (44.1 kHz/16 Bit/s)
Log & Cue incl.: Yes/Yes
Size: 558,7 MB
Password: “slam” (without ” “)


All Downloads/Hosters are compatible

Download 1
KatFile.com
Turbobit.net
Rapidgator.net
FileFactory.com
Download 2
KatFile.com
Turbobit.net
Rapidgator.net
FileFactory.com

Tracklist:

1 Easy Livin' 3:14
2 Look At Yourself 5:18
3 Lady In Black 7:26
4 Free Me 4:53
5 Stealin' 4:54
6 The Wizard 3:35
7 July Morning 12:35
8 Falling In Love 3:04
9 Woman Of The Night 3:12
10 I'm Alive 4:04
11 Sweet Lorraine 12:44
12 Free N' Easy 2:53
13 Gypsy 4:52

EAC-Log, CUE-Sheed & NFO:

Click to open spoiler
Exact Audio Copy V0.99 prebeta 5 from 4. May 2009

Отчёт EAC об извлечении, выполненном 29. мая 2011, 12:12

Uriah Heep / LIVE In Europe 1979

Дисковод: Optiarc DVD RW AD-7240S Adapter: 1 ID: 0

Режим чтения : Достоверность
Использование точного потока : Да
Отключение кэша аудио : Да
Использование указателей C2 : Нет

Коррекция смещения при чтении : 48
Способность читать области Lead-in и Lead-out : Нет
Заполнение пропущенных сэмплов тишиной : Да
Удаление блоков с тишиной в начале и конце : Нет
При вычислениях CRC использовались нулевые сэмплы : Да
Интерфейс : Встроенный Win32-интерфейс для Win NT/2000

Выходной формат : Пользовательский кодировщик
Выбранный битрейт : 768 kBit/s
Качество : Высокий
Добавление ID3-тэга : Нет
Утилита сжатия : C:\Program Files\Exact Audio Copy\FLAC\FLAC.EXE
Дополнительные параметры : -6 -V -T “ARTIST=%a” -T “TITLE=%t” -T “ALBUM=%g” -T “DATE=%y” -T “TRACKNUMBER=%n” -T “GENRE=%m” -T “COMMENT=%e” %s -o %d

TOC извлечённого CD

Трек | Старт | Длительность | Начальный сектор | Конечный сектор
———————————————————————
1 | 0:00.33 | 3:17.15 | 33 | 14822
2 | 3:17.48 | 5:07.47 | 14823 | 37894
3 | 8:25.20 | 7:19.45 | 37895 | 70864
4 | 15:44.65 | 5:02.38 | 70865 | 93552
5 | 20:47.28 | 6:06.65 | 93553 | 121067
6 | 26:54.18 | 4:13.22 | 121068 | 140064
7 | 31:07.40 | 12:13.38 | 140065 | 195077
8 | 43:21.03 | 2:57.32 | 195078 | 208384
9 | 46:18.35 | 3:18.18 | 208385 | 223252
10 | 49:36.53 | 4:11.30 | 223253 | 242107
11 | 53:48.08 | 11:30.25 | 242108 | 293882
12 | 65:18.33 | 3:20.52 | 293883 | 308934
13 | 68:39.10 | 5:07.08 | 308935 | 331967

Характеристики диапазона извлечения и сообщения об ошибках

Выбранный диапазон

Имя файла E:\music\Uriah Heep\1979. Live In Europe\Uriah Heep – LIVE In Europe 1979.wav

Пиковый уровень 97.3 %
Качество диапазона 100.0 %
CRC теста 683C9E8C
CRC копии 683C9E8C
Копирование… OK

Ошибок не произошло

AccurateRip: сводка

Трек 1 точное извлечение (доверие 4) [E4F662AA]
Трек 2 точное извлечение (доверие 4) [25C2B992]
Трек 3 точное извлечение (доверие 4) [AF987F0D]
Трек 4 точное извлечение (доверие 3) [07F62CD5]
Трек 5 точное извлечение (доверие 4) [F1C2C097]
Трек 6 точное извлечение (доверие 4) [4588B051]
Трек 7 точное извлечение (доверие 4) [2E922106]
Трек 8 точное извлечение (доверие 4) [24904037]
Трек 9 точное извлечение (доверие 4) [0FACEBAE]
Трек 10 точное извлечение (доверие 4) [3E733959]
Трек 11 точное извлечение (доверие 2) [EC3EB60C]
Трек 12 точное извлечение (доверие 3) [4603F2C5]
Трек 13 точное извлечение (доверие 3) [557444FD]

Все треки извлечены точно

Конец отчёта

REM GENRE “Hard Rock”
REM DATE 1986
REM DISCID BE114A0D
REM COMMENT “ExactAudioCopy v0.99pb5”
PERFORMER “Uriah Heep”
TITLE “LIVE In Europe 1979”
FILE “Uriah Heep – LIVE In Europe 1979.flac” WAVE
TRACK 01 AUDIO
TITLE “Easy Livin'”
PERFORMER “Uriah Heep”
INDEX 00 00:00:00
INDEX 01 00:00:33
TRACK 02 AUDIO
TITLE “Look At Yourself”
PERFORMER “Uriah Heep”
INDEX 00 03:17:45
INDEX 01 03:17:48
TRACK 03 AUDIO
TITLE “Lady In Black”
PERFORMER “Uriah Heep”
INDEX 00 08:25:18
INDEX 01 08:25:20
TRACK 04 AUDIO
TITLE “Free Me”
PERFORMER “Uriah Heep”
INDEX 00 15:44:63
INDEX 01 15:44:65
TRACK 05 AUDIO
TITLE “Stealin'”
PERFORMER “Uriah Heep”
INDEX 00 20:46:63
INDEX 01 20:47:28
TRACK 06 AUDIO
TITLE “The Wizard”
PERFORMER “Uriah Heep”
INDEX 00 26:54:15
INDEX 01 26:54:18
TRACK 07 AUDIO
TITLE “July Morning”
PERFORMER “Uriah Heep”
INDEX 00 31:07:38
INDEX 01 31:07:40
TRACK 08 AUDIO
TITLE “Falling In Love”
PERFORMER “Uriah Heep”
INDEX 00 43:21:00
INDEX 01 43:21:03
TRACK 09 AUDIO
TITLE “Woman Of The Night”
PERFORMER “Uriah Heep”
INDEX 00 46:18:33
INDEX 01 46:18:35
TRACK 10 AUDIO
TITLE “I’m Alive”
PERFORMER “Uriah Heep”
INDEX 00 49:36:50
INDEX 01 49:36:53
TRACK 11 AUDIO
TITLE “Sweet Lorraine”
PERFORMER “Uriah Heep”
INDEX 00 53:47:05
INDEX 01 53:48:08
TRACK 12 AUDIO
TITLE “Free N’ Easy”
PERFORMER “Uriah Heep”
INDEX 00 65:18:30
INDEX 01 65:18:33
TRACK 13 AUDIO
TITLE “Gypsy”
PERFORMER “Uriah Heep”
INDEX 00 68:39:08
INDEX 01 68:39:10


0

Publication author

offline 4 days

Chaos

3
Comments: 4Publics: 3565Registration: 02-02-2019
Spread the Download

Leave a Reply

Your email address will not be published. Required fields are marked *

Enter the text from the image below
 

This site uses Akismet to reduce spam. Learn how your comment data is processed.