Uriah Heep – Into the Wild




Artist: Uriah Heep
Year: 2011
Genre: Rock
Notes: Discogs
Add. Notes:
Cover incl.: Yes
Encoder: FLAC
Bitrate: ~1000 kBit/s (44.1 kHz/16 Bit/s)
Log & Cue incl.: Yes
Size: 628 MB
Password: “slam” (without ” “)


All Downloads/Hosters are compatible

Download 1
KatFile.com
Turbobit.net
FileFactory.com
Rapidgator.net
Download 2
KatFile.com
Turbobit.net
FileFactory.com
Rapidgator.net

Tracklist:

1 - Nail On The Head - 4:15
2 - I Can See You - 4:13
3 - Into The Wild - 4:20
4 - Money Talk - 4:44
5 - Trail Of Diamonds - 4:14
6 - Lost - 6:28
7 - Believe - 4:26
8 - Southern Star - 5:09
9 - I'm Ready - 4:51
10 - T-bird Angel - 4:01
11 - Kiss Of Freedom - 6:13

EAC-Log, CUE-Sheed & NFO:

Click to open spoiler
Exact Audio Copy V1.0 beta 2 from 29. April 2011

EAC extraction logfile from 25. September 2011, 17:20

Uriah Heep / Into the Wild

Used drive : Optiarc DVD RW AD-7240S Adapter: 1 ID: 0

Read mode : Secure
Utilize accurate stream : Yes
Defeat audio cache : Yes
Make use of C2 pointers : No

Read offset correction : 48
Overread into Lead-In and Lead-Out : No
Fill up missing offset samples with silence : Yes
Delete leading and trailing silent blocks : No
Null samples used in CRC calculations : Yes
Used interface : Native Win32 interface for Win NT & 2000

Used output format : User Defined Encoder
Selected bitrate : 1024 kBit/s
Quality : High
Add ID3 tag : Yes
Command line compressor : C:\Program Files\Exact Audio Copy\Flac\flac.exe
Additional command line options : -6 -V -T “ARTIST=%artist%” -T “TITLE=%title%” -T “ALBUM=%albumtitle%” -T “DATE=%year%” -T “TRACKNUMBER=%tracknr%” -T “GENRE=%genre%” -T “COMMENT=%comment%” %source% -o %dest%

TOC of the extracted CD

Track | Start | Length | Start sector | End sector
———————————————————
1 | 0:00.00 | 4:15.52 | 0 | 19176
2 | 4:15.52 | 4:13.43 | 19177 | 38194
3 | 8:29.20 | 4:20.53 | 38195 | 57747
4 | 12:49.73 | 4:44.24 | 57748 | 79071
5 | 17:34.22 | 4:14.48 | 79072 | 98169
6 | 21:48.70 | 6:28.05 | 98170 | 127274
7 | 28:17.00 | 4:26.15 | 127275 | 147239
8 | 32:43.15 | 5:09.26 | 147240 | 170440
9 | 37:52.41 | 4:51.29 | 170441 | 192294
10 | 42:43.70 | 4:01.32 | 192295 | 210401
11 | 46:45.27 | 6:13.11 | 210402 | 238387
12 | 55:30.38 | 11:44.44 | 249788 | 302631

Range status and errors

Selected range

Filename E:\music\Uriah Heep\Studio\2011. Into the Wild\Uriah Heep – Into the Wild.wav

Peak level 100.0 %
Extraction speed 4.0 X
Range quality 100.0 %
Test CRC C3678ECD
Copy CRC C3678ECD
Copy OK

No errors occurred

AccurateRip summary

Track 1 cannot be verified as accurate (confidence 6) [19459236], AccurateRip returned [FFA702DC] (AR v2)
Track 2 cannot be verified as accurate (confidence 6) [FFF98A9C], AccurateRip returned [238B3C5F] (AR v2)
Track 3 cannot be verified as accurate (confidence 6) [4B29FEEE], AccurateRip returned [9FDF4FBB] (AR v2)
Track 4 cannot be verified as accurate (confidence 6) [87F77A21], AccurateRip returned [391DCF11] (AR v2)
Track 5 cannot be verified as accurate (confidence 6) [56682795], AccurateRip returned [D329B104] (AR v2)
Track 6 cannot be verified as accurate (confidence 6) [AAA00213], AccurateRip returned [9EBB6E30] (AR v2)
Track 7 cannot be verified as accurate (confidence 6) [1FC60715], AccurateRip returned [9103995F] (AR v2)
Track 8 cannot be verified as accurate (confidence 6) [956B07E8], AccurateRip returned [C7B0094D] (AR v2)
Track 9 cannot be verified as accurate (confidence 6) [4C298435], AccurateRip returned [7FB3A4CF] (AR v2)
Track 10 cannot be verified as accurate (confidence 6) [98A65943], AccurateRip returned [F246D119] (AR v2)
Track 11 cannot be verified as accurate (confidence 6) [2096EDE6], AccurateRip returned [F76E7CEA] (AR v2)

No tracks could be verified as accurate
You may have a different pressing from the one(s) in the database

End of status report

==== Log checksum 814E775F21074BF8D2DCD27C6F258C3C849024BE8CA6382A23F2C524650FDC37 ====

REM GENRE “Hard Rock”
REM DATE 2011
REM DISCID A20FC30C
REM COMMENT “ExactAudioCopy v1.0b2”
PERFORMER “Uriah Heep”
TITLE “Into the Wild”
FILE “Uriah Heep – Into the Wild.flac” WAVE
TRACK 01 AUDIO
TITLE “Nail on the Head”
PERFORMER “Uriah Heep”
FLAGS DCP
INDEX 01 00:00:00
TRACK 02 AUDIO
TITLE “I Can See You”
PERFORMER “Uriah Heep”
FLAGS DCP
INDEX 01 04:15:52
TRACK 03 AUDIO
TITLE “Into the Wild”
PERFORMER “Uriah Heep”
FLAGS DCP
INDEX 01 08:29:20
TRACK 04 AUDIO
TITLE “Money Talk”
PERFORMER “Uriah Heep”
FLAGS DCP
INDEX 01 12:49:73
TRACK 05 AUDIO
TITLE “I’m Ready”
PERFORMER “Uriah Heep”
FLAGS DCP
INDEX 01 17:34:22
TRACK 06 AUDIO
TITLE “Trail of Diamonds”
PERFORMER “Uriah Heep”
FLAGS DCP
INDEX 01 21:48:70
TRACK 07 AUDIO
TITLE “Southern Star”
PERFORMER “Uriah Heep”
FLAGS DCP
INDEX 01 28:17:00
TRACK 08 AUDIO
TITLE “Believe”
PERFORMER “Uriah Heep”
FLAGS DCP
INDEX 01 32:43:15
TRACK 09 AUDIO
TITLE “Lost”
PERFORMER “Uriah Heep”
FLAGS DCP
INDEX 01 37:52:41
TRACK 10 AUDIO
TITLE “T-Bird Angel”
PERFORMER “Uriah Heep”
FLAGS DCP
INDEX 01 42:43:70
TRACK 11 AUDIO
TITLE “Kiss of Freedom”
PERFORMER “Uriah Heep”
FLAGS DCP
INDEX 01 46:45:27


Leave a Reply

Your email address will not be published. Required fields are marked *

This site uses Akismet to reduce spam. Learn how your comment data is processed.