Uriah Heep – Innocent Victim




[Total: 0    Average: 0/5]

Artist: Uriah Heep
Year: 1977/1987
Genre: Rock
Notes: Discogs
Add. Notes:
Cover incl.: Yes
Encoder: FLAC
Bitrate: ~900 kBit/s (44.1 kHz/16 Bit/s)
Log & Cue incl.: Yes
Size: 321,39 MB
Password: “slam” (without ” “)


All Downloads/Hosters are compatible

Download 1
Share-online.biz
KatFile.com
Rapidgator.net
Download 2
Share-online.biz
KatFile.com
Rapidgator.net

Tracklist:

1. Keep On Ridin' 
2. Flyin' High 
3. Roller 
4. Free N' Easy 
5. Illusion 
6. Free Me 
7. Cheat 'N' Lie 
8. The Dance 
9. Choices

EAC-Log, CUE-Sheed & NFO:

Click to open spoiler
Exact Audio Copy V1.0 beta 2 from 29. April 2011

EAC extraction logfile from 11. July 2011, 22:52

Uriah Heep / Innocent Victim

Used drive : Optiarc DVD RW AD-7240S Adapter: 1 ID: 0

Read mode : Secure
Utilize accurate stream : Yes
Defeat audio cache : Yes
Make use of C2 pointers : No

Read offset correction : 48
Overread into Lead-In and Lead-Out : No
Fill up missing offset samples with silence : Yes
Delete leading and trailing silent blocks : No
Null samples used in CRC calculations : Yes
Used interface : Native Win32 interface for Win NT & 2000

Used output format : User Defined Encoder
Selected bitrate : 1024 kBit/s
Quality : High
Add ID3 tag : Yes
Command line compressor : C:\Program Files\Exact Audio Copy\Flac\flac.exe
Additional command line options : -6 -V -T “ARTIST=%artist%” -T “TITLE=%title%” -T “ALBUM=%albumtitle%” -T “DATE=%year%” -T “TRACKNUMBER=%tracknr%” -T “GENRE=%genre%” -T “COMMENT=%comment%” %source% -o %dest%

TOC of the extracted CD

Track | Start | Length | Start sector | End sector
———————————————————
1 | 0:00.33 | 3:45.17 | 33 | 16924
2 | 3:45.50 | 3:19.05 | 16925 | 31854
3 | 7:04.55 | 4:40.55 | 31855 | 52909
4 | 11:45.35 | 3:06.63 | 52910 | 66922
5 | 14:52.23 | 5:04.25 | 66923 | 89747
6 | 19:56.48 | 3:34.57 | 89748 | 105854
7 | 23:31.30 | 4:55.25 | 105855 | 128004
8 | 28:26.55 | 4:50.05 | 128005 | 149759
9 | 33:16.60 | 5:44.60 | 149760 | 175619

Range status and errors

Selected range

Filename E:\music\Uriah Heep\1977. Innocent Victim\1977. Innocent Victim (Bronze Rec. 260 130, Germany)\Uriah Heep – Innocent Victim.wav

Peak level 100.0 %
Extraction speed 3.5 X
Range quality 99.9 %
Test CRC 3270D0BC
Copy CRC 3270D0BC
Copy OK

No errors occurred

AccurateRip summary

Track 1 accurately ripped (confidence 4) [1D0A4109] (AR v1)
Track 2 accurately ripped (confidence 4) [16F4780D] (AR v1)
Track 3 accurately ripped (confidence 4) [2E113E53] (AR v1)
Track 4 accurately ripped (confidence 4) [E6FBCC5E] (AR v1)
Track 5 accurately ripped (confidence 4) [F3E4D298] (AR v1)
Track 6 accurately ripped (confidence 4) [A94948A5] (AR v1)
Track 7 accurately ripped (confidence 4) [D436690E] (AR v1)
Track 8 accurately ripped (confidence 4) [258A389A] (AR v1)
Track 9 accurately ripped (confidence 4) [F0D0738C] (AR v1)

All tracks accurately ripped

End of status report

==== Log checksum 59954CBA78E90C042E11367BE8DC67EDCE708BBDA6E61185B3AA4299069C8097 ====

REM GENRE Rock
REM DATE 1977
REM DISCID 83092509
REM COMMENT “ExactAudioCopy v1.0b2”
PERFORMER “Uriah Heep”
TITLE “Innocent Victim”
FILE “Uriah Heep – Innocent Victim.flac” WAVE
TRACK 01 AUDIO
TITLE “Keep On Ridin'”
PERFORMER “Uriah Heep”
INDEX 00 00:00:00
INDEX 01 00:00:33
TRACK 02 AUDIO
TITLE “Flyin’ High”
PERFORMER “Uriah Heep”
INDEX 00 03:44:08
INDEX 01 03:45:50
TRACK 03 AUDIO
TITLE “Roller”
PERFORMER “Uriah Heep”
INDEX 00 07:03:40
INDEX 01 07:04:55
TRACK 04 AUDIO
TITLE “Free ‘N’ Easy”
PERFORMER “Uriah Heep”
INDEX 00 11:44:50
INDEX 01 11:45:35
TRACK 05 AUDIO
TITLE “Illusion”
PERFORMER “Uriah Heep”
INDEX 00 14:50:05
INDEX 01 14:52:23
TRACK 06 AUDIO
TITLE “Free Me”
PERFORMER “Uriah Heep”
INDEX 00 19:55:03
INDEX 01 19:56:48
TRACK 07 AUDIO
TITLE “Cheat ‘N’ Lie”
PERFORMER “Uriah Heep”
INDEX 00 23:29:68
INDEX 01 23:31:30
TRACK 08 AUDIO
TITLE “The Dance”
PERFORMER “Uriah Heep”
INDEX 00 28:24:20
INDEX 01 28:26:55
TRACK 09 AUDIO
TITLE “Choices”
PERFORMER “Uriah Heep”
INDEX 00 33:16:08
INDEX 01 33:16:60


Spread the Download

Leave a Reply

Your email address will not be published. Required fields are marked *

Enter the text from the image below
 

This site uses Akismet to reduce spam. Learn how your comment data is processed.