Uriah Heep – Innocent Victim (Remastered)




[Total: 0    Average: 0/5]

Artist: Uriah Heep
Year: 1977
Genre: Rock
Notes: Discogs
Add. Notes: Remastered
Cover incl.: Yes
Encoder: FLAC
Bitrate: ~900 kBit/s (44.1 kHz/16 Bit/s)
Log & Cue incl.: Yes
Size: 643,84 MB
Password: “slam” (without ” “)


All Downloads/Hosters are compatible

Download 1
Share-online.biz
KatFile.com
Rapidgator.net
Download 2
Share-online.biz
KatFile.com
Rapidgator.net

Tracklist:

1 - Keep On Ridin' - 3:41
2 - Flyin' High - 3:20
3 - Roller - 4:41
4 - Free 'N' Easy - 3:06
5 - Illusion - 5:05
6 - Free Me - 3:35
7 - Cheat 'N' Lie - 4:54
8 - The Dance - 4:49
9 - Choices - 5:50
Bonus Tracks
10 - Illusion / Masquerade (Full Unedited Version) - 8:19
11 - The River (Out-Take) - 3:08

EAC-Log, CUE-Sheed & NFO:

Click to open spoiler
Exact Audio Copy V1.0 beta 2 from 29. April 2011

EAC extraction logfile from 23. January 2012, 15:50

Uriah Heep / Innocent Victim

Used drive : Optiarc DVD RW AD-7240S Adapter: 1 ID: 0

Read mode : Secure
Utilize accurate stream : Yes
Defeat audio cache : Yes
Make use of C2 pointers : No

Read offset correction : 48
Overread into Lead-In and Lead-Out : No
Fill up missing offset samples with silence : Yes
Delete leading and trailing silent blocks : No
Null samples used in CRC calculations : Yes
Used interface : Native Win32 interface for Win NT & 2000

Used output format : User Defined Encoder
Selected bitrate : 1024 kBit/s
Quality : High
Add ID3 tag : Yes
Command line compressor : C:\Program Files\Exact Audio Copy\Flac\flac.exe
Additional command line options : -6 -V -T “ARTIST=%artist%” -T “TITLE=%title%” -T “ALBUM=%albumtitle%” -T “DATE=%year%” -T “TRACKNUMBER=%tracknr%” -T “GENRE=%genre%” -T “COMMENT=%comment%” %source% -o %dest%

TOC of the extracted CD

Track | Start | Length | Start sector | End sector
———————————————————
1 | 0:00.00 | 3:40.45 | 0 | 16544
2 | 3:40.45 | 3:19.47 | 16545 | 31516
3 | 7:00.17 | 4:41.30 | 31517 | 52621
4 | 11:41.47 | 3:05.73 | 52622 | 66569
5 | 14:47.45 | 5:05.32 | 66570 | 89476
6 | 19:53.02 | 3:34.43 | 89477 | 105569
7 | 23:27.45 | 4:54.35 | 105570 | 127654
8 | 28:22.05 | 4:49.20 | 127655 | 149349
9 | 33:11.25 | 5:49.52 | 149350 | 175576
10 | 39:01.02 | 8:18.48 | 175577 | 212974
11 | 47:19.50 | 3:08.00 | 212975 | 227074

Range status and errors

Selected range

Filename E:\music\Uriah Heep\Studio\1977. Innocent Victim\1977. Innocent Victim (Castle ESMCD 560, England)\Uriah Heep – Innocent Victim.wav

Peak level 100.0 %
Extraction speed 3.8 X
Range quality 100.0 %
Test CRC B96B1DE5
Copy CRC B96B1DE5
Copy OK

No errors occurred

AccurateRip summary

Track 1 not present in database
Track 2 not present in database
Track 3 not present in database
Track 4 not present in database
Track 5 not present in database
Track 6 not present in database
Track 7 not present in database
Track 8 not present in database
Track 9 not present in database
Track 10 not present in database
Track 11 not present in database

None of the tracks are present in the AccurateRip database

End of status report

==== Log checksum E63159983D584C881C343A10D1F6D6591F18A6EE711D2F6EB83BB81C1667A1B9 ====

REM GENRE “Hard Rock”
REM DATE 1977
REM DISCID 8E0BD30B
REM COMMENT “ExactAudioCopy v1.0b2”
PERFORMER “Uriah Heep”
TITLE “Innocent Victim”
FILE “Uriah Heep – Innocent Victim.flac” WAVE
TRACK 01 AUDIO
TITLE “Keep On Ridin'”
PERFORMER “Uriah Heep”
INDEX 01 00:00:00
TRACK 02 AUDIO
TITLE “Flyin’ High”
PERFORMER “Uriah Heep”
INDEX 00 03:38:72
INDEX 01 03:40:45
TRACK 03 AUDIO
TITLE “Roller”
PERFORMER “Uriah Heep”
INDEX 00 06:59:10
INDEX 01 07:00:17
TRACK 04 AUDIO
TITLE “Free ‘n’ Easy”
PERFORMER “Uriah Heep”
INDEX 00 11:40:20
INDEX 01 11:41:47
TRACK 05 AUDIO
TITLE “Illusion”
PERFORMER “Uriah Heep”
INDEX 00 14:46:05
INDEX 01 14:47:45
TRACK 06 AUDIO
TITLE “Free Me”
PERFORMER “Uriah Heep”
INDEX 00 19:50:02
INDEX 01 19:53:02
TRACK 07 AUDIO
TITLE “Cheat ‘n’ Lie”
PERFORMER “Uriah Heep”
INDEX 01 23:27:45
TRACK 08 AUDIO
TITLE “The Dance”
PERFORMER “Uriah Heep”
INDEX 00 28:20:50
INDEX 01 28:22:05
TRACK 09 AUDIO
TITLE “Choices”
PERFORMER “Uriah Heep”
INDEX 01 33:11:25
TRACK 10 AUDIO
TITLE “A. Illusion -B.Masquerade (Full Unedited Version)”
PERFORMER “Uriah Heep”
INDEX 00 38:55:30
INDEX 01 39:01:02
TRACK 11 AUDIO
TITLE “The River (Out Take)”
PERFORMER “Uriah Heep”
INDEX 00 47:17:57
INDEX 01 47:19:50


Spread the Download

Leave a Reply

Your email address will not be published. Required fields are marked *

Enter the text from the image below
 

This site uses Akismet to reduce spam. Learn how your comment data is processed.