Uriah Heep – Innocent Victim (Remastered Deluxe Edition)




Artist: Uriah Heep
Year: 1977/2004
Genre: Rock
Notes: Discogs
Add. Notes: Remastered Deluxe Edition
Cover incl.: Yes
Encoder: FLAC
Bitrate: ~900 kBit/s (44.1 kHz/16 Bit/s)
Log & Cue incl.: Yes
Size: 503,4 MB
Password: “slam” (without ” “)


All Downloads/Hosters are compatible

Download 1
KatFile.com
Turbobit.net
FileFactory.com
Rapidgator.net
Download 2
KatFile.com
Turbobit.net
FileFactory.com
Rapidgator.net

Tracklist:

1. Keep On Ridin'
2. Flyin' High
3. Roller
4. Free 'N' Easy
5. Illusion
6. Free Me
7. Cheat 'N' Lie
8. The Dance
9. Choices

Bonus Tracks
10. Illusion / Masquerade (Full Unedited Version)
11. The River (Out-Take)
12. Put Your Music Where Your Mouth Is (Previously 
Unreleased)
13. Cheat 'N' Lie (Alternative Live Version)
14. Free Me (Alternative Live Version)
15. Free 'N' Easy (Alternative Live Version)

EAC-Log, CUE-Sheed & NFO:

Click to open spoiler
REM GENRE “Hard Rock”
REM DATE 1977
REM DISCID D0100E0F
REM COMMENT “ExactAudioCopy v1.0b3”
PERFORMER “Uriah Heep”
TITLE “Innocent Victim (Expanded Deluxe EditiExact Audio Copy V1.0 beta 3 from 29. August 2011

EAC extraction logfile from 22. October 2013, 20:13

Uriah Heep / Innocent Victim (Expanded Deluxe Edition)

Used drive : SONY BD RW BDX-S600U Adapter: 2 ID: 0

Read mode : Secure
Utilize accurate stream : Yes
Defeat audio cache : Yes
Make use of C2 pointers : No

Read offset correction : 48
Overread into Lead-In and Lead-Out : No
Fill up missing offset samples with silence : Yes
Delete leading and trailing silent blocks : No
Null samples used in CRC calculations : Yes
Used interface : Native Win32 interface for Win NT & 2000

Used output format : User Defined Encoder
Selected bitrate : 128 kBit/s
Quality : High
Add ID3 tag : No
Command line compressor : C:\Program Files (x86)\Exact Audio Copy\Flac\flac.exe
Additional command line options : -V -8 -T “Date=%year%” -T “Genre=%genre%” %source%

TOC of the extracted CD

Track | Start | Length | Start sector | End sector
———————————————————
1 | 0:00.00 | 3:43.49 | 0 | 16773
2 | 3:43.49 | 3:19.40 | 16774 | 31738
3 | 7:03.14 | 4:41.39 | 31739 | 52852
4 | 11:44.53 | 3:06.02 | 52853 | 66804
5 | 14:50.55 | 5:05.33 | 66805 | 89712
6 | 19:56.13 | 3:34.34 | 89713 | 105796
7 | 23:30.47 | 4:54.36 | 105797 | 127882
8 | 28:25.08 | 4:49.19 | 127883 | 149576
9 | 33:14.27 | 5:49.59 | 149577 | 175810
10 | 39:04.11 | 8:18.48 | 175811 | 213208
11 | 47:22.59 | 3:10.51 | 213209 | 227509
12 | 50:33.35 | 2:57.23 | 227510 | 240807
13 | 53:30.58 | 5:58.12 | 240808 | 267669
14 | 59:28.70 | 5:46.54 | 267670 | 293673
15 | 65:15.49 | 3:15.03 | 293674 | 308301

Range status and errors

Selected range

Filename D:\Uriah Heep – Discography\Studio\1977. Innocent Victim\1977. Innocent Victim Expanded De-luxe Edition (Sanctuary SRMCD 108,EU)\Uriah Heep – Innocent Victim (Expanded Deluxe Edition).wav

Peak level 100.0 %
Extraction speed 16.2 X
Range quality 100.0 %
Test CRC 9E0C70A0
Copy CRC 9E0C70A0
Copy OK

No errors occurred

AccurateRip summary

Track 1 accurately ripped (confidence 8) [C4242604] (AR v2)
Track 2 accurately ripped (confidence 7) [10FDE864] (AR v2)
Track 3 accurately ripped (confidence 7) [FDF25E0D] (AR v2)
Track 4 accurately ripped (confidence 7) [06BF3767] (AR v2)
Track 5 accurately ripped (confidence 7) [20E99A9C] (AR v2)
Track 6 accurately ripped (confidence 7) [092DEC39] (AR v2)
Track 7 accurately ripped (confidence 7) [B853638E] (AR v2)
Track 8 accurately ripped (confidence 7) [7F0BAA3F] (AR v2)
Track 9 accurately ripped (confidence 7) [C58959C8] (AR v2)
Track 10 accurately ripped (confidence 7) [C2AC1F25] (AR v2)
Track 11 accurately ripped (confidence 7) [B2459E67] (AR v2)
Track 12 accurately ripped (confidence 7) [8529B4E7] (AR v2)
Track 13 cannot be verified as accurate (confidence 11) [B95EB9BC], AccurateRip returned [83A6E21C] (AR v2)
Track 14 accurately ripped (confidence 7) [DF4FB77D] (AR v2)
Track 15 accurately ripped (confidence 7) [69DFA5E8] (AR v2)

14 трек(и) скопированы точно
1 трек(и) не удалось проверить на точность

Some tracks could not be verified as accurate

End of status report

—- CUETools DB Plugin V2.1.3

[CTDB TOCID: 1zuWnV6wI_hSfIQpsP0zaWHSj7U-] found, Submit result: 1zuWnV6wI_hSfIQpsP0zaWHSj7U- has been submitted
[d502d100] (7/8) Differs in 171 samples @53:32:60
[438918a2] (1/8) No match
You can use CUETools to repair this rip.

==== Log checksum 5CD3505B0428361C165E4C52C3A436A54462562DAC96B3F2B96DA326E4461C0F ====

on)”
FILE “Uriah Heep – Innocent Victim (Expanded Deluxe Edition).flac” WAVE
TRACK 01 AUDIO
TITLE “Keep On Ridin'”
PERFORMER “Uriah Heep”
INDEX 01 00:00:00
TRACK 02 AUDIO
TITLE “Flyin’ High”
PERFORMER “Uriah Heep”
INDEX 00 03:41:63
INDEX 01 03:43:49
TRACK 03 AUDIO
TITLE “Roller”
PERFORMER “Uriah Heep”
INDEX 00 07:02:18
INDEX 01 07:03:14
TRACK 04 AUDIO
TITLE “Free ‘N’ Easy”
PERFORMER “Uriah Heep”
INDEX 00 11:43:18
INDEX 01 11:44:53
TRACK 05 AUDIO
TITLE “Illusion”
PERFORMER “Uriah Heep”
INDEX 00 14:48:71
INDEX 01 14:50:55
TRACK 06 AUDIO
TITLE “Free Me”
PERFORMER “Uriah Heep”
INDEX 00 19:53:05
INDEX 01 19:56:13
TRACK 07 AUDIO
TITLE “Cheat ‘N’ Lie”
PERFORMER “Uriah Heep”
INDEX 00 23:29:16
INDEX 01 23:30:47
TRACK 08 AUDIO
TITLE “The Dance”
PERFORMER “Uriah Heep”
INDEX 00 28:23:48
INDEX 01 28:25:08
TRACK 09 AUDIO
TITLE “Choices”
PERFORMER “Uriah Heep”
INDEX 01 33:14:27
TRACK 10 AUDIO
TITLE “Illusion – Masquerade (Full Unedited Version)”
PERFORMER “Uriah Heep”
INDEX 00 38:58:46
INDEX 01 39:04:11
INDEX 02 43:32:51
TRACK 11 AUDIO
TITLE “The River (Innocent Victim Out-Take)”
PERFORMER “Uriah Heep”
INDEX 00 47:20:37
INDEX 01 47:22:59
TRACK 12 AUDIO
TITLE “Put Your Music Where Your Mouth Is (Innocent Victim Out-Take)”
PERFORMER “Uriah Heep”
INDEX 00 50:29:69
INDEX 01 50:33:35
TRACK 13 AUDIO
TITLE “Cheat ‘N’ Lie (Alternative Live Version)”
PERFORMER “Uriah Heep”
INDEX 00 53:27:22
INDEX 01 53:30:58
TRACK 14 AUDIO
TITLE “Free Me (Alternative Live Version)”
PERFORMER “Uriah Heep”
INDEX 01 59:28:70
TRACK 15 AUDIO
TITLE “Free ‘N’ Easy (Alternative Live Version)”
PERFORMER “Uriah Heep”
INDEX 01 65:15:49


Leave a Reply

Your email address will not be published. Required fields are marked *

Enter the text from the image below
 

This site uses Akismet to reduce spam. Learn how your comment data is processed.