Uriah Heep – High And Mighty




Artist: Uriah Heep
Year: 1976/1987
Genre: Rock
Notes: Discogs
Add. Notes:
Cover incl.: Yes
Encoder: FLAC
Bitrate: ~900 kBit/s (44.1 kHz/16 Bit/s)
Log & Cue incl.: Yes
Size: 342 MB
Password: “slam” (without ” “)


All Downloads/Hosters are compatible

Download 1
KatFile.com
Turbobit.net
FileFactory.com
Rapidgator.net
Download 2
KatFile.com
Turbobit.net
FileFactory.com
Rapidgator.net

Tracklist:

1. One Way Or Another
2. Weep In Silence
3. Misty Eyes
4. Midnight
5. Can't Keep A Good Band Down
6. Woman Of The World
7. Footprints In The Snow
8. Can't Stop Singing
9. Make A Little Love
10. Confession

EAC-Log, CUE-Sheed & NFO:

Click to open spoiler
Exact Audio Copy V1.0 beta 2 from 29. April 2011

EAC extraction logfile from 10. December 2011, 12:20

Uriah Heep / High And Mighty

Used drive : Optiarc DVD RW AD-7240S Adapter: 1 ID: 0

Read mode : Secure
Utilize accurate stream : Yes
Defeat audio cache : Yes
Make use of C2 pointers : No

Read offset correction : 48
Overread into Lead-In and Lead-Out : No
Fill up missing offset samples with silence : Yes
Delete leading and trailing silent blocks : No
Null samples used in CRC calculations : Yes
Used interface : Native Win32 interface for Win NT & 2000

Used output format : User Defined Encoder
Selected bitrate : 1024 kBit/s
Quality : High
Add ID3 tag : Yes
Command line compressor : C:\Program Files\Exact Audio Copy\Flac\flac.exe
Additional command line options : -6 -V -T “ARTIST=%artist%” -T “TITLE=%title%” -T “ALBUM=%albumtitle%” -T “DATE=%year%” -T “TRACKNUMBER=%tracknr%” -T “GENRE=%genre%” -T “COMMENT=%comment%” %source% -o %dest%

TOC of the extracted CD

Track | Start | Length | Start sector | End sector
———————————————————
1 | 0:00.33 | 4:39.47 | 33 | 21004
2 | 4:40.05 | 5:07.13 | 21005 | 44042
3 | 9:47.18 | 4:18.17 | 44043 | 63409
4 | 14:05.35 | 5:44.18 | 63410 | 89227
5 | 19:49.53 | 3:47.70 | 89228 | 106322
6 | 23:37.48 | 3:11.22 | 106323 | 120669
7 | 26:48.70 | 3:58.43 | 120670 | 138562
8 | 30:47.38 | 3:26.45 | 138563 | 154057
9 | 34:14.08 | 3:28.40 | 154058 | 169697
10 | 37:42.48 | 2:10.15 | 169698 | 179462

Range status and errors

Selected range

Filename E:\music\Uriah Heep\Studio\1976. High & Mighty\1976. High And Mighty (Bronze Rec. 260 133, Germany)\Uriah Heep – High And Mighty.wav

Peak level 95.5 %
Extraction speed 3.6 X
Range quality 100.0 %
Test CRC 6C55B1EB
Copy CRC 6C55B1EB
Copy OK

No errors occurred

AccurateRip summary

Track 1 accurately ripped (confidence 3) [14E2BC2E] (AR v1)
Track 2 accurately ripped (confidence 3) [99CE7FF4] (AR v1)
Track 3 accurately ripped (confidence 3) [59B00443] (AR v1)
Track 4 accurately ripped (confidence 3) [8E3D5EC5] (AR v1)
Track 5 accurately ripped (confidence 3) [2CD3DCE2] (AR v1)
Track 6 accurately ripped (confidence 3) [5483121F] (AR v1)
Track 7 accurately ripped (confidence 3) [D21ABC74] (AR v1)
Track 8 accurately ripped (confidence 3) [C562A146] (AR v1)
Track 9 accurately ripped (confidence 3) [691747E8] (AR v1)
Track 10 accurately ripped (confidence 3) [09FCDFC8] (AR v1)

All tracks accurately ripped

End of status report

==== Log checksum 71416F056420F74EEF8D6B27A7697C1D22E57907C8BE45F0D26F24EBBB639E62 ====

REM GENRE Rock
REM DATE 1976
REM DISCID 8B09580A
REM COMMENT “ExactAudioCopy v1.0b2”
PERFORMER “Uriah Heep”
TITLE “High And Mighty”
FILE “Uriah Heep – High And Mighty.flac” WAVE
TRACK 01 AUDIO
TITLE “One Way Or Another”
PERFORMER “Uriah Heep”
INDEX 00 00:00:00
INDEX 01 00:00:33
TRACK 02 AUDIO
TITLE “Weep In Silence”
PERFORMER “Uriah Heep”
INDEX 01 04:40:05
TRACK 03 AUDIO
TITLE “Misty Eyes”
PERFORMER “Uriah Heep”
INDEX 01 09:47:18
TRACK 04 AUDIO
TITLE “Midnight”
PERFORMER “Uriah Heep”
INDEX 00 14:04:33
INDEX 01 14:05:35
TRACK 05 AUDIO
TITLE “Can’t Keep A Good Band Down”
PERFORMER “Uriah Heep”
INDEX 00 19:48:05
INDEX 01 19:49:53
TRACK 06 AUDIO
TITLE “Woman Of The World”
PERFORMER “Uriah Heep”
INDEX 00 23:36:33
INDEX 01 23:37:48
TRACK 07 AUDIO
TITLE “Footprints In The Snow”
PERFORMER “Uriah Heep”
INDEX 00 26:48:03
INDEX 01 26:48:70
TRACK 08 AUDIO
TITLE “Can’t Stop Singing”
PERFORMER “Uriah Heep”
INDEX 00 30:46:60
INDEX 01 30:47:38
TRACK 09 AUDIO
TITLE “Make A Little Love”
PERFORMER “Uriah Heep”
INDEX 00 34:13:15
INDEX 01 34:14:08
TRACK 10 AUDIO
TITLE “Confession”
PERFORMER “Uriah Heep”
INDEX 00 37:41:45
INDEX 01 37:42:48


Leave a Reply

Your email address will not be published. Required fields are marked *

This site uses Akismet to reduce spam. Learn how your comment data is processed.