Uriah Heep – High And Mighty (Remastered)




Artist: Uriah Heep
Year: 1976/1997
Genre: Rock
Notes: Discogs
Add. Notes: Remastered
Cover incl.: Yes
Encoder: FLAC
Bitrate: ~1000 kBit/s (44.1 kHz/16 Bit/s)
Log & Cue incl.: Yes
Size: 605,85 MB
Password: “slam” (without ” “)


All Downloads/Hosters are compatible

Download 1
Turbobit.net
KatFile.com
Rapidgator.net
Download 2
Turbobit.net
KatFile.com
Rapidgator.net

Tracklist:

1 - One Way Or Another - 4:37
2 - Weep In Silence - 5:09
3 - Misty Eyes - 4:15
4 - Midnight - 5:40
5 - Can't Keep A Good Band Down - 3:40
6 - Woman Of The World - 3:10
7 - Footprints In The Snow - 3:56
8 - Can't Stop Singing - 3:15
9 - Make A Little Love - 3:24
10 - Confession - 2:16
Bonus Tracks
11 - Name Of The Game (Previously Unreleased Version) - 
4:59
12 - Sundown (Alternate Version) - 3:20

EAC-Log, CUE-Sheed & NFO:

Click to open spoiler
Exact Audio Copy V0.99 prebeta 5 from 4. May 2009

Отчёт EAC об извлечении, выполненном 18. апреля 2011, 14:35

Uriah Heep / High And Mighty

Дисковод: Optiarc DVD RW AD-7240S Adapter: 1 ID: 0

Режим чтения : Достоверность
Использование точного потока : Да
Отключение кэша аудио : Да
Использование указателей C2 : Нет

Коррекция смещения при чтении : 48
Способность читать области Lead-in и Lead-out : Нет
Заполнение пропущенных сэмплов тишиной : Да
Удаление блоков с тишиной в начале и конце : Нет
При вычислениях CRC использовались нулевые сэмплы : Да
Интерфейс : Встроенный Win32-интерфейс для Win NT/2000

Выходной формат : Пользовательский кодировщик
Выбранный битрейт : 768 kBit/s
Качество : Высокий
Добавление ID3-тэга : Нет
Утилита сжатия : C:\Program Files\Exact Audio Copy\FLAC\FLAC.EXE
Дополнительные параметры : -6 -V -T “ARTIST=%a” -T “TITLE=%t” -T “ALBUM=%g” -T “DATE=%y” -T “TRACKNUMBER=%n” -T “GENRE=%m” -T “COMMENT=%e” %s -o %d

TOC извлечённого CD

Трек | Старт | Длительность | Начальный сектор | Конечный сектор
———————————————————————
1 | 0:00.00 | 4:39.07 | 0 | 20931
2 | 4:39.07 | 5:06.43 | 20932 | 43924
3 | 9:45.50 | 4:14.62 | 43925 | 63036
4 | 14:00.37 | 5:40.33 | 63037 | 88569
5 | 19:40.70 | 3:38.25 | 88570 | 104944
6 | 23:19.20 | 3:08.32 | 104945 | 119076
7 | 26:27.52 | 3:56.20 | 119077 | 136796
8 | 30:23.72 | 3:20.28 | 136797 | 151824
9 | 33:44.25 | 3:26.70 | 151825 | 167344
10 | 37:11.20 | 2:14.47 | 167345 | 177441
11 | 39:25.67 | 4:59.28 | 177442 | 199894
12 | 44:25.20 | 3:20.72 | 199895 | 214966

Характеристики диапазона извлечения и сообщения об ошибках

Выбранный диапазон

Имя файла E:\music\Uriah Heep\1976. High & Mighty\1976. High & Mighty (Castle ESMCD 468, England)\Uriah Heep – High And Mighty.wav

Пиковый уровень 96.7 %
Качество диапазона 100.0 %
CRC теста 8BFB579E
CRC копии 8BFB579E
Копирование… OK

Ошибок не произошло

AccurateRip: сводка

Трек 1 точное извлечение (доверие 9) [23051742]
Трек 2 точное извлечение (доверие 9) [0E55D20C]
Трек 3 точное извлечение (доверие 9) [E69A0F79]
Трек 4 точное извлечение (доверие 9) [4542DE82]
Трек 5 точное извлечение (доверие 9) [26EF02BE]
Трек 6 точное извлечение (доверие 9) [4F7D255D]
Трек 7 точное извлечение (доверие 9) [40A836B4]
Трек 8 точное извлечение (доверие 9) [4B793E48]
Трек 9 точное извлечение (доверие 9) [B66973D5]
Трек 10 точное извлечение (доверие 9) [77D97497]
Трек 11 точное извлечение (доверие 9) [21C559D3]
Трек 12 точное извлечение (доверие 8) [A5F0C5DF]

Все треки извлечены точно

Конец отчёта

REM GENRE Rock
REM DATE 1976
REM DISCID A30B320C
REM COMMENT “ExactAudioCopy v0.99pb5”
PERFORMER “Uriah Heep”
TITLE “High And Mighty”
FILE “Uriah Heep – High And Mighty.flac” WAVE
TRACK 01 AUDIO
TITLE “One Way Or Another”
PERFORMER “Uriah Heep”
INDEX 01 00:00:00
TRACK 02 AUDIO
TITLE “Weep In Silence”
PERFORMER “Uriah Heep”
INDEX 01 04:39:07
TRACK 03 AUDIO
TITLE “Misty Eyes”
PERFORMER “Uriah Heep”
INDEX 01 09:45:50
TRACK 04 AUDIO
TITLE “Midnight”
PERFORMER “Uriah Heep”
INDEX 01 14:00:37
TRACK 05 AUDIO
TITLE “Can’t Keep A Good Band Down”
PERFORMER “Uriah Heep”
INDEX 00 19:39:15
INDEX 01 19:40:70
TRACK 06 AUDIO
TITLE “Woman Of The World”
PERFORMER “Uriah Heep”
INDEX 00 23:17:40
INDEX 01 23:19:20
TRACK 07 AUDIO
TITLE “Footprints In The Snow”
PERFORMER “Uriah Heep”
INDEX 00 26:25:72
INDEX 01 26:27:52
TRACK 08 AUDIO
TITLE “Can’t Stop Singing”
PERFORMER “Uriah Heep”
INDEX 00 30:22:17
INDEX 01 30:23:72
TRACK 09 AUDIO
TITLE “Make A Little Love”
PERFORMER “Uriah Heep”
INDEX 00 33:42:45
INDEX 01 33:44:25
TRACK 10 AUDIO
TITLE “Confession”
PERFORMER “Uriah Heep”
INDEX 00 37:09:37
INDEX 01 37:11:20
TRACK 11 AUDIO
TITLE “Name Of The Game (bonus track)”
PERFORMER “Uriah Heep”
INDEX 00 39:19:40
INDEX 01 39:25:67
TRACK 12 AUDIO
TITLE “Sundown”
PERFORMER “Uriah Heep”
INDEX 00 44:23:40
INDEX 01 44:25:20


Leave a Reply

Your email address will not be published. Required fields are marked *

This site uses Akismet to reduce spam. Learn how your comment data is processed.