Uriah Heep – High And Mighty (Remastered Deluxe Edition)




No Cover available

Artist: Uriah Heep
Year: 1976/2004
Genre: Rock
Notes: Discogs
Add. Notes: Remastered Deluxe Edition
Watch Songs on: YouTube
Cover incl.: Yes
Encoder: FLAC
Bitrate: ~900 kBit/s (44.1 kHz/16 Bit/s)
Log & Cue incl.: Yes/Yes
Size: 516 MB
Password: “slam” (without ” “)


All Downloads/Hosters are compatible

Download 1
KatFile.com
Turbobit.net
Rapidgator.net
FileFactory.com
Download 2
KatFile.com
Turbobit.net
Rapidgator.net
FileFactory.com

Tracklist:

1 One Way Or Another 4:42
2 Weep In Silence 5:06
3 Misty Eyes 4:15
4 Midnight 5:40
5 Can't Keep A Good Band Down 3:38
6 Woman Of The World 3:08
7 Footprints In The Snow 3:56
8 Can't Stop Singing 3:20
9 Make A Little Love 3:26
10 Confession 2:14

Bonus Tracks
11 Name Of The Game (Previously Unreleased Version) 
5:13
12 Sundown (Alternate Version) 3:20
13 Weep In Silence (Previously Unreleased Extended 
Version) 7:46
14 Name Of The Game (Demo Version) 3:21
15 Does Anything Matter (Demo Version) 3:20
16 I Close My Eyes (Demo Version) 4:18
17 Take Care (Demo Version) 2:57
18 Can't Keep A Good Band Down (Edited Version) 3:09

EAC-Log, CUE-Sheed & NFO:

Click to open spoiler
Exact Audio Copy V1.0 beta 3 from 29. August 2011

EAC extraction logfile from 12. November 2013, 13:56

Uriah Heep / High and Mighty

Used drive : SONY BD RW BDX-S600U Adapter: 2 ID: 0

Read mode : Secure
Utilize accurate stream : Yes
Defeat audio cache : Yes
Make use of C2 pointers : No

Read offset correction : 48
Overread into Lead-In and Lead-Out : No
Fill up missing offset samples with silence : Yes
Delete leading and trailing silent blocks : No
Null samples used in CRC calculations : Yes
Used interface : Native Win32 interface for Win NT & 2000

Used output format : User Defined Encoder
Selected bitrate : 128 kBit/s
Quality : High
Add ID3 tag : No
Command line compressor : C:\Program Files (x86)\Exact Audio Copy\Flac\flac.exe
Additional command line options : -V -8 -T “Date=%year%” -T “Genre=%genre%” %source%

TOC of the extracted CD

Track | Start | Length | Start sector | End sector
———————————————————
1 | 0:00.00 | 4:42.08 | 0 | 21157
2 | 4:42.08 | 5:06.41 | 21158 | 44148
3 | 9:48.49 | 4:15.01 | 44149 | 63274
4 | 14:03.50 | 5:40.19 | 63275 | 88793
5 | 19:43.69 | 3:38.24 | 88794 | 105167
6 | 23:22.18 | 3:08.34 | 105168 | 119301
7 | 26:30.52 | 3:56.17 | 119302 | 137018
8 | 30:26.69 | 3:20.29 | 137019 | 152047
9 | 33:47.23 | 3:26.69 | 152048 | 167566
10 | 37:14.17 | 2:14.72 | 167567 | 177688
11 | 39:29.14 | 5:13.68 | 177689 | 201231
12 | 44:43.07 | 3:20.71 | 201232 | 216302
13 | 48:04.03 | 7:46.49 | 216303 | 251301
14 | 55:50.52 | 3:21.00 | 251302 | 266376
15 | 59:11.52 | 3:20.04 | 266377 | 281380
16 | 62:31.56 | 4:18.17 | 281381 | 300747
17 | 66:49.73 | 2:57.16 | 300748 | 314038
18 | 69:47.14 | 3:09.35 | 314039 | 328248

Range status and errors

Selected range

Filename D:\Uriah Heep – Discography\Studio\1976. High & Mighty\1976. High And Mighty Expanded De-Luxe Edition (Sanctuary SMRCD101,Germany)\Uriah Heep – High and Mighty.wav

Peak level 100.0 %
Extraction speed 6.8 X
Range quality 100.0 %
Test CRC 77B11D3B
Copy CRC 704D9AF8
Copy OK

No errors occurred

AccurateRip summary

Track 1 accurately ripped (confidence 5) [90818655] (AR v2)
Track 2 accurately ripped (confidence 5) [B53FC10F] (AR v2)
Track 3 accurately ripped (confidence 5) [B70A02FF] (AR v2)
Track 4 accurately ripped (confidence 5) [2AD42B2E] (AR v2)
Track 5 accurately ripped (confidence 5) [9C9CF26B] (AR v2)
Track 6 accurately ripped (confidence 5) [45CFF1DC] (AR v2)
Track 7 accurately ripped (confidence 5) [832DFDE2] (AR v2)
Track 8 accurately ripped (confidence 5) [50BE5387] (AR v2)
Track 9 cannot be verified as accurate (confidence 9) [186F8E0E], AccurateRip returned [C3593967] (AR v2)
Track 10 accurately ripped (confidence 5) [A172B1B5] (AR v2)
Track 11 accurately ripped (confidence 5) [19399941] (AR v2)
Track 12 accurately ripped (confidence 5) [EE1C2CE3] (AR v2)
Track 13 accurately ripped (confidence 5) [78D46FB9] (AR v2)
Track 14 accurately ripped (confidence 5) [3E6E8B02] (AR v2)
Track 15 accurately ripped (confidence 5) [98E10E11] (AR v2)
Track 16 accurately ripped (confidence 5) [E06EF133] (AR v2)
Track 17 accurately ripped (confidence 5) [52C5C96A] (AR v2)
Track 18 accurately ripped (confidence 5) [07442259] (AR v2)

17 трек(и) скопированы точно
1 трек(и) не удалось проверить на точность

Some tracks could not be verified as accurate

End of status report

—- CUETools DB Plugin V2.1.3

[CTDB TOCID: a2GA57ntcu3kYd4k3X4EzziiVHQ-] found, Submit result: insufficient quality
[6a719343] (24/24) Differs in 240 samples @34:26:57
You can use CUETools to repair this rip.

==== Log checksum 5E13EDD6485A1E8E6766DF0504BBD3DB60766A53CC5E63D7F8771A7E2381CE64 ====

REM DATE 1976
REM DISCID 0B111812
REM COMMENT “ExactAudioCopy v1.0b3”
PERFORMER “Uriah Heep”
TITLE “High and Mighty”
FILE “Uriah Heep – High and Mighty.flac” WAVE
TRACK 01 AUDIO
TITLE “One Way or Another”
PERFORMER “Uriah Heep”
ISRC GBAJE7600371
INDEX 01 00:00:00
TRACK 02 AUDIO
TITLE “Weep in Silence”
PERFORMER “Uriah Heep”
INDEX 01 04:42:08
TRACK 03 AUDIO
TITLE “Misty Eyes”
PERFORMER “Uriah Heep”
INDEX 01 09:48:49
TRACK 04 AUDIO
TITLE “Midnight”
PERFORMER “Uriah Heep”
INDEX 01 14:03:50
TRACK 05 AUDIO
TITLE “Can’t Keep a Good Band Down”
PERFORMER “Uriah Heep”
ISRC GBAJE7600116
INDEX 00 19:42:13
INDEX 01 19:43:69
TRACK 06 AUDIO
TITLE “Woman of the World”
PERFORMER “Uriah Heep”
ISRC GBAJE7600117
INDEX 00 23:20:43
INDEX 01 23:22:18
TRACK 07 AUDIO
TITLE “Footprints in the Snow”
PERFORMER “Uriah Heep”
ISRC GBAJE7600118
INDEX 00 26:28:73
INDEX 01 26:30:52
TRACK 08 AUDIO
TITLE “Can’t Stop Singing”
PERFORMER “Uriah Heep”
ISRC GBAJE7600119
INDEX 00 30:25:14
INDEX 01 30:26:69
TRACK 09 AUDIO
TITLE “Make a Little Love”
PERFORMER “Uriah Heep”
ISRC GBAJE7600120
INDEX 00 33:45:40
INDEX 01 33:47:23
TRACK 10 AUDIO
TITLE “Confession”
PERFORMER “Uriah Heep”
ISRC GBAJE7600121
INDEX 00 37:12:41
INDEX 01 37:14:17
TRACK 11 AUDIO
TITLE “Name of the Game (out-take)”
PERFORMER “Uriah Heep”
ISRC GBAJE0400468
INDEX 00 39:22:50
INDEX 01 39:29:14
TRACK 12 AUDIO
TITLE “Sundown (alternative version)”
PERFORMER “Uriah Heep”
ISRC GBAJE9500223
INDEX 00 44:40:41
INDEX 01 44:43:07
TRACK 13 AUDIO
TITLE “Weep in Silence (extended version)”
PERFORMER “Uriah Heep”
ISRC GBAJE0400469
INDEX 00 48:01:00
INDEX 01 48:04:03
TRACK 14 AUDIO
TITLE “Name of the Game (Ken Hensley demo version)”
PERFORMER “Uriah Heep”
ISRC GBAJE9400154
INDEX 00 55:48:64
INDEX 01 55:50:52
TRACK 15 AUDIO
TITLE “Woman of the World (Ken Hensley demo version)”
PERFORMER “Uriah Heep”
ISRC GBAJE9400155
INDEX 00 59:11:14
INDEX 01 59:11:52
TRACK 16 AUDIO
TITLE “I Close My Eyes (Ken Hensley demo version)”
PERFORMER “Uriah Heep”
ISRC GBAJE0400467
INDEX 00 62:29:24
INDEX 01 62:31:56
TRACK 17 AUDIO
TITLE “Footprints in the Snow (Ken Hensley demo version)”
PERFORMER “Uriah Heep”
ISRC GBAJE0400466
INDEX 00 66:47:55
INDEX 01 66:49:73
TRACK 18 AUDIO
TITLE “Can’t Keep a Good Band Down (edited version)”
PERFORMER “Uriah Heep”
ISRC GBAJE0400465
INDEX 00 69:44:03
INDEX 01 69:47:14


Leave a Reply

Your email address will not be published. Required fields are marked *

This site uses Akismet to reduce spam. Learn how your comment data is processed.