Uriah Heep – Head First




[Total: 0    Average: 0/5]

Artist: Uriah Heep
Year: 1983/1990
Genre: Rock
Notes: Discogs
Add. Notes:
Cover incl.: Yes
Encoder: FLAC
Bitrate: ~800 kBit/s (44.1 kHz/16 Bit/s)
Log & Cue incl.: Yes
Size: 313,39 MB
Password: “slam” (without ” “)


All Downloads/Hosters are compatible

Download 1
Share-online.biz
KatFile.com
Rapidgator.net
NitroFlare.com
Download 2
Share-online.biz
KatFile.com
Rapidgator.net
NitroFlare.com

Tracklist:

1. In Other Side Of Midnight 	
2. Stay On Top 	
3. Lonely Nights 	
4. Sweet Talk 	
5. Love Is Blind 	
6. Roll-Overture 	
7. Red Lights 	
8. Rollin' The Rock 	
9. Straight Through The Heart 	
10. Weekend Warriors

EAC-Log, CUE-Sheed & NFO:

Click to open spoiler
REM GENRE “Hard Rock”
REM DATE 1983
REM DISCID 7E08C50A
REM COMMENT “ExactAudioCopy v1.0b2”
PERFORMER “Uriah Heep”
TITLE “Head First”
FILE “Uriah Heep – Head First.flac” WAVE
TRACK 01 AUDIO
TITLE “The Other Side Of Midnight”
PERFORMER “Uriah Heep”
INDEX 00 00:00:00
INDEX 01 00:00:33
TRACK 02 AUDIO
TITLE “Stay On Top”
PERFORMER “Uriah Heep”
INDEX 01 03:55:68
TRACK 03 AUDIO
TITLE “Lonely Nights”
PERFORMER “Uriah Heep”
INDEX 01 07:31:33
TRACK 04 AUDIO
TITLE “Sweet Talk”
PERFORMER “Uriah Heep”
INDEX 01 11:38:40
TRACK 05 AUDIO
TITLE “Love Is Blind”
PERFORMER “Uriah Heep”
INDEX 01 15:29:08
TRACK 06 AUDIO
TITLE “Roll-Overture”
PERFORMER “Uriah Heep”
INDEX 00 19:05:50
INDEX 01 19:06:28
TRACK 07 AUDIO
TITLE “Red Lights”
PERFORMER “Uriah Heep”
INDEX 01 21:24:58
TRACK 08 AUDIO
TITLE “Rollin’ The Rock”
PERFORMER “Uriah Heep”
INDEX 00 24:21:58
INDEX 01 24:23:30
TRACK 09 AUDIO
TITLE “Straight Through The Heart”
PERFORMER “Uriah Heep”
INDEX 01 29:55:48
TRACK 10 AUDIO
TITLE “Weekend Warriors”
PERFORMER “Uriah Heep”
INDEX 01 33:34:68

Exact Audio Copy V1.0 beta 2 from 29. April 2011

EAC extraction logfile from 10. September 2011, 23:50

Uriah Heep / Head First

Used drive : Optiarc DVD RW AD-7240S Adapter: 1 ID: 0

Read mode : Secure
Utilize accurate stream : Yes
Defeat audio cache : Yes
Make use of C2 pointers : No

Read offset correction : 48
Overread into Lead-In and Lead-Out : No
Fill up missing offset samples with silence : Yes
Delete leading and trailing silent blocks : No
Null samples used in CRC calculations : Yes
Used interface : Native Win32 interface for Win NT & 2000

Used output format : User Defined Encoder
Selected bitrate : 1024 kBit/s
Quality : High
Add ID3 tag : Yes
Command line compressor : C:\Program Files\Exact Audio Copy\Flac\flac.exe
Additional command line options : -6 -V -T “ARTIST=%artist%” -T “TITLE=%title%” -T “ALBUM=%albumtitle%” -T “DATE=%year%” -T “TRACKNUMBER=%tracknr%” -T “GENRE=%genre%” -T “COMMENT=%comment%” %source% -o %dest%

TOC of the extracted CD

Track | Start | Length | Start sector | End sector
———————————————————
1 | 0:00.33 | 3:55.35 | 33 | 17692
2 | 3:55.68 | 3:35.40 | 17693 | 33857
3 | 7:31.33 | 4:07.07 | 33858 | 52389
4 | 11:38.40 | 3:50.43 | 52390 | 69682
5 | 15:29.08 | 3:37.20 | 69683 | 85977
6 | 19:06.28 | 2:18.30 | 85978 | 96357
7 | 21:24.58 | 2:58.47 | 96358 | 109754
8 | 24:23.30 | 5:32.18 | 109755 | 134672
9 | 29:55.48 | 3:39.20 | 134673 | 151117
10 | 33:34.68 | 3:50.50 | 151118 | 168417

Range status and errors

Selected range

Filename E:\music\Uriah Heep\Studio\1983. Head First\1983. Head First (Bronze 255 474, Germany)\Uriah Heep – Head First.wav

Peak level 100.0 %
Extraction speed 3.5 X
Range quality 100.0 %
Test CRC BDE38F27
Copy CRC BDE38F27
Copy OK

No errors occurred

AccurateRip summary

Track 1 accurately ripped (confidence 1) [8A456E69] (AR v1)
Track 2 accurately ripped (confidence 1) [5C476CED] (AR v1)
Track 3 accurately ripped (confidence 1) [E7C93047] (AR v1)
Track 4 accurately ripped (confidence 1) [711B9728] (AR v1)
Track 5 accurately ripped (confidence 1) [E402CD7E] (AR v1)
Track 6 accurately ripped (confidence 1) [A7762CCD] (AR v1)
Track 7 accurately ripped (confidence 1) [E52622D3] (AR v1)
Track 8 accurately ripped (confidence 1) [0D155D0D] (AR v1)
Track 9 accurately ripped (confidence 1) [781130B4] (AR v1)
Track 10 accurately ripped (confidence 1) [FDD6AC06] (AR v1)

All tracks accurately ripped

End of status report

==== Log checksum 335DF14E2581FDB69507EF67A215A5C50B5456DC4FFDAF866A6EFD34F55FFC53 ====


Spread the Download

Leave a Reply

Your email address will not be published. Required fields are marked *

Enter the text from the image below
 

This site uses Akismet to reduce spam. Learn how your comment data is processed.