Uriah Heep – Head First (Remastered)




No Cover available

Artist: Uriah Heep
Year: 1983/1997
Genre: Rock
Notes: Discogs
Add. Notes: Remastered
Watch Songs on: YouTube
Cover incl.: Yes
Encoder: FLAC
Bitrate: ~900 kBit/s (44.1 kHz/16 Bit/s)
Log & Cue incl.: Yes/Yes
Size: 530,1 MB
Password: “slam” (without ” “)


All Downloads/Hosters are compatible

Download 1
KatFile.com
Turbobit.net
Rapidgator.net
FileFactory.com
Download 2
KatFile.com
Turbobit.net
Rapidgator.net
FileFactory.com

Tracklist:

1 The Other Side Of Midnight 
2 Stay On Top 
3 Lonely Nights 
4 Sweet Talk 
5 Love Is Blind 
6 Roll-Overture 
7 Red Lights 
8 Rollin' The Rock 
9 Straight Through The Heart 
10 Weekend Warriors 

Bonus Tracks
11 Playing For Time (EP Only Release) 
12 Searching (Demo Backing-Track) 
13 The Wizard (Previously Unreleased Live Version)

EAC-Log, CUE-Sheed & NFO:

Click to open spoiler
Exact Audio Copy V1.0 beta 2 from 29. April 2011

EAC extraction logfile from 21. January 2012, 16:46

Uriah Heep / Head First

Used drive : Optiarc DVD RW AD-7240S Adapter: 1 ID: 0

Read mode : Secure
Utilize accurate stream : Yes
Defeat audio cache : Yes
Make use of C2 pointers : No

Read offset correction : 48
Overread into Lead-In and Lead-Out : No
Fill up missing offset samples with silence : Yes
Delete leading and trailing silent blocks : No
Null samples used in CRC calculations : Yes
Used interface : Native Win32 interface for Win NT & 2000

Used output format : User Defined Encoder
Selected bitrate : 1024 kBit/s
Quality : High
Add ID3 tag : Yes
Command line compressor : C:\Program Files\Exact Audio Copy\Flac\flac.exe
Additional command line options : -6 -V -T “ARTIST=%artist%” -T “TITLE=%title%” -T “ALBUM=%albumtitle%” -T “DATE=%year%” -T “TRACKNUMBER=%tracknr%” -T “GENRE=%genre%” -T “COMMENT=%comment%” %source% -o %dest%

TOC of the extracted CD

Track | Start | Length | Start sector | End sector
———————————————————
1 | 0:00.00 | 3:56.65 | 0 | 17764
2 | 3:56.65 | 3:36.02 | 17765 | 33966
3 | 7:32.67 | 4:08.05 | 33967 | 52571
4 | 11:40.72 | 3:52.70 | 52572 | 70041
5 | 15:33.67 | 3:38.15 | 70042 | 86406
6 | 19:12.07 | 2:19.35 | 86407 | 96866
7 | 21:31.42 | 2:58.08 | 96867 | 110224
8 | 24:29.50 | 5:23.30 | 110225 | 134479
9 | 29:53.05 | 3:50.10 | 134480 | 151739
10 | 33:43.15 | 3:54.57 | 151740 | 169346
11 | 37:37.72 | 4:27.13 | 169347 | 189384
12 | 42:05.10 | 3:52.10 | 189385 | 206794
13 | 45:57.20 | 4:52.55 | 206795 | 228749

Range status and errors

Selected range

Filename E:\music\Uriah Heep\Studio\1983. Head First\1983. Head First (Castle, ESMCD 572, England)\Uriah Heep – Head First.wav

Peak level 100.0 %
Extraction speed 3.8 X
Range quality 100.0 %
Test CRC 7569FA6B
Copy CRC 7569FA6B
Copy OK

No errors occurred

AccurateRip summary

Track 1 cannot be verified as accurate (confidence 6) [E7C56894], AccurateRip returned [B94DABB4] (AR v2)
Track 2 cannot be verified as accurate (confidence 6) [9CFF7D4F], AccurateRip returned [6EA905A9] (AR v2)
Track 3 cannot be verified as accurate (confidence 6) [29C6D7DA], AccurateRip returned [3C7D4E57] (AR v2)
Track 4 cannot be verified as accurate (confidence 6) [72F0A932], AccurateRip returned [58BDFAB6] (AR v2)
Track 5 cannot be verified as accurate (confidence 6) [7738EA70], AccurateRip returned [3F476719] (AR v2)
Track 6 cannot be verified as accurate (confidence 6) [6AA5D315], AccurateRip returned [15F648D9] (AR v2)
Track 7 cannot be verified as accurate (confidence 6) [838A02B6], AccurateRip returned [41AF1570] (AR v2)
Track 8 cannot be verified as accurate (confidence 6) [6BA14A59], AccurateRip returned [6D27D257] (AR v2)
Track 9 cannot be verified as accurate (confidence 6) [115E6CDA], AccurateRip returned [9420D754] (AR v2)
Track 10 cannot be verified as accurate (confidence 6) [04FDFFA4], AccurateRip returned [A3E7A6EC] (AR v2)
Track 11 cannot be verified as accurate (confidence 6) [33BECAD4], AccurateRip returned [2E4140C1] (AR v2)
Track 12 cannot be verified as accurate (confidence 6) [85DF21E5], AccurateRip returned [359462A1] (AR v2)
Track 13 cannot be verified as accurate (confidence 7) [474BCC94], AccurateRip returned [099C990E] (AR v2)

No tracks could be verified as accurate
You may have a different pressing from the one(s) in the database

End of status report

==== Log checksum 579F837821798BF481750AFE3A6554438BAF5F2DA8726402FCE0954E277CA198 ====

REM GENRE Rock
REM DATE 1983
REM DISCID B50BEA0D
REM COMMENT “ExactAudioCopy v1.0b2”
PERFORMER “Uriah Heep”
TITLE “Head First”
FILE “Uriah Heep – Head First.flac” WAVE
TRACK 01 AUDIO
TITLE “The Other Side Of Midnight”
PERFORMER “Uriah Heep”
INDEX 01 00:00:00
TRACK 02 AUDIO
TITLE “Stay On Top”
PERFORMER “Uriah Heep”
INDEX 00 03:56:52
INDEX 01 03:56:65
TRACK 03 AUDIO
TITLE “Lonely Nights”
PERFORMER “Uriah Heep”
INDEX 01 07:32:67
TRACK 04 AUDIO
TITLE “Sweet Talk”
PERFORMER “Uriah Heep”
INDEX 00 11:40:20
INDEX 01 11:40:72
TRACK 05 AUDIO
TITLE “Love Is Blind”
PERFORMER “Uriah Heep”
INDEX 01 15:33:67
TRACK 06 AUDIO
TITLE “Roll-Overture”
PERFORMER “Uriah Heep”
INDEX 00 19:11:52
INDEX 01 19:12:07
TRACK 07 AUDIO
TITLE “Red Lights”
PERFORMER “Uriah Heep”
INDEX 01 21:31:42
TRACK 08 AUDIO
TITLE “Rollin’ the Rock”
PERFORMER “Uriah Heep”
INDEX 01 24:29:50
TRACK 09 AUDIO
TITLE “Straight Through The Heart”
PERFORMER “Uriah Heep”
INDEX 01 29:53:05
TRACK 10 AUDIO
TITLE “Weekend Warriors”
PERFORMER “Uriah Heep”
INDEX 01 33:43:15
TRACK 11 AUDIO
TITLE “Playing For Time”
PERFORMER “Uriah Heep”
INDEX 00 37:33:30
INDEX 01 37:37:72
TRACK 12 AUDIO
TITLE “Searching”
PERFORMER “Uriah Heep”
INDEX 00 42:03:05
INDEX 01 42:05:10
TRACK 13 AUDIO
TITLE “The Wizard”
PERFORMER “Uriah Heep”
INDEX 00 45:56:42
INDEX 01 45:57:20


0

Publication author

offline 8 hours

Chaos

3
Comments: 4Publics: 3360Registration: 02-02-2019
Spread the Download

Leave a Reply

Your email address will not be published. Required fields are marked *

Enter the text from the image below
 

This site uses Akismet to reduce spam. Learn how your comment data is processed.