Uriah Heep – Head First (Remastered Deluxe Edition)




No Cover available

Artist: Uriah Heep
Year: 1983/2005
Genre: Rock
Notes: Discogs
Add. Notes: Remastered Deluxe Edition
Watch Songs on: YouTube
Cover incl.: Yes
Encoder: FLAC
Bitrate: ~800 kBit/s (44.1 kHz/16 Bit/s)
Log & Cue incl.: Yes/Yes
Size: 578,7 MB
Password: “slam” (without ” “)


All Downloads/Hosters are compatible

Download 1
KatFile.com
Turbobit.net
Rapidgator.net
FileFactory.com
Download 2
KatFile.com
Turbobit.net
Rapidgator.net
FileFactory.com

Tracklist:

1 The Other Side Of Midnight 3:57
2 Stay On Top 3:36
3 Lonely Nights 4:08
4 Sweet Talk 3:52
5 Love Is Blind 3:38
6 Roll-Overture 2:20
7 Red Lights 2:59
8 Rollin' The Rock 5:23
9 Straight Through The Heart 3:50
10 Weekend Warriors 3:55

Bonus Tracks
11 Playing For Time (EP Track) 4:27
12 Searching (Extended Demo) 4:54
13 The Other Side Of Midnight (Live) 4:36
14 Lonely Nights (Live) 6:45
15 Angel (Live) 5:22

EAC-Log, CUE-Sheed & NFO:

Click to open spoiler
Exact Audio Copy V1.0 beta 3 from 29. August 2011

EAC extraction logfile from 9. February 2014, 22:37

Uriah Heep / Head First (Deluxe Edition) (2005 Remaster)

Used drive : SONY BD RW BDX-S600U Adapter: 2 ID: 1

Read mode : Secure
Utilize accurate stream : Yes
Defeat audio cache : Yes
Make use of C2 pointers : No

Read offset correction : 48
Overread into Lead-In and Lead-Out : No
Fill up missing offset samples with silence : Yes
Delete leading and trailing silent blocks : No
Null samples used in CRC calculations : Yes
Used interface : Native Win32 interface for Win NT & 2000

Used output format : User Defined Encoder
Selected bitrate : 128 kBit/s
Quality : High
Add ID3 tag : No
Command line compressor : C:\Program Files (x86)\Exact Audio Copy\Flac\flac.exe
Additional command line options : -V -8 -T “Date=%year%” -T “Genre=%genre%” %source%

TOC of the extracted CD

Track | Start | Length | Start sector | End sector
———————————————————
1 | 0:00.00 | 3:56.60 | 0 | 17759
2 | 3:56.60 | 3:36.05 | 17760 | 33964
3 | 7:32.65 | 4:08.36 | 33965 | 52600
4 | 11:41.26 | 3:52.31 | 52601 | 70031
5 | 15:33.57 | 3:38.09 | 70032 | 86390
6 | 19:11.66 | 2:19.43 | 86391 | 96858
7 | 21:31.34 | 2:58.66 | 96859 | 110274
8 | 24:30.25 | 5:22.67 | 110275 | 134491
9 | 29:53.17 | 3:49.62 | 134492 | 151728
10 | 33:43.04 | 3:54.68 | 151729 | 169346
11 | 37:37.72 | 4:26.66 | 169347 | 189362
12 | 42:04.63 | 4:53.41 | 189363 | 211378
13 | 46:58.29 | 4:36.11 | 211379 | 232089
14 | 51:34.40 | 6:45.15 | 232090 | 262479
15 | 58:19.55 | 5:21.67 | 262480 | 286621

Range status and errors

Selected range

Filename D:\Uriah Heep – Discography\Studio\1983. Head First\1983. Head First Expanded De-luxe Edition (Sanctuary SMRCD 186, EU)\Uriah Heep – Head First (Deluxe Edition) (2005 Remaster).wav

Peak level 100.0 %
Extraction speed 6.9 X
Range quality 99.9 %
Test CRC 506D7F80
Copy CRC 506D7F80
Copy OK

No errors occurred

AccurateRip summary

Track 1 accurately ripped (confidence 2) [B284FA74] (AR v2)
Track 2 accurately ripped (confidence 2) [1AD0F8B0] (AR v2)
Track 3 accurately ripped (confidence 2) [7EC39342] (AR v2)
Track 4 accurately ripped (confidence 2) [AFF99CB3] (AR v2)
Track 5 accurately ripped (confidence 2) [ABCD015E] (AR v2)
Track 6 accurately ripped (confidence 2) [5D814DF9] (AR v2)
Track 7 accurately ripped (confidence 2) [D2CCE39A] (AR v2)
Track 8 accurately ripped (confidence 2) [5C0C715F] (AR v2)
Track 9 accurately ripped (confidence 2) [53A464FB] (AR v2)
Track 10 accurately ripped (confidence 2) [4D013AFC] (AR v2)
Track 11 accurately ripped (confidence 2) [947196F5] (AR v2)
Track 12 accurately ripped (confidence 2) [E99D4454] (AR v2)
Track 13 accurately ripped (confidence 2) [4D54EECE] (AR v2)
Track 14 accurately ripped (confidence 2) [41F1820E] (AR v2)
Track 15 accurately ripped (confidence 2) [9F3E2C4A] (AR v2)

All tracks accurately ripped

End of status report

—- CUETools DB Plugin V2.1.3

[CTDB TOCID: .OQEclnC49lULx_bASBCaUGnUNQ-] found, Submit result: .OQEclnC49lULx_bASBCaUGnUNQ- has been confirmed
[86e71e9b] (11/11) Accurately ripped

==== Log checksum 1EE53B32640B57AD715395B6D31A3B53733AFF9992FC2F9EA7465CBB1BEEB2AF ====

REM GENRE Rock
REM DATE 1983
REM DISCID C50EED0F
REM COMMENT “ExactAudioCopy v1.0b3”
PERFORMER “Uriah Heep”
TITLE “Head First (Deluxe Edition) (2005 Remaster)”
FILE “Uriah Heep – Head First (Deluxe Edition) (2005 Remaster).flac” WAVE
TRACK 01 AUDIO
TITLE “The Other Side Of Midnight”
PERFORMER “Uriah Heep”
INDEX 01 00:00:00
TRACK 02 AUDIO
TITLE “Stay On Top”
PERFORMER “Uriah Heep”
INDEX 01 03:56:60
TRACK 03 AUDIO
TITLE “Lonely Nights”
PERFORMER “Uriah Heep”
INDEX 01 07:32:65
TRACK 04 AUDIO
TITLE “Sweet Talk”
PERFORMER “Uriah Heep”
INDEX 01 11:41:26
TRACK 05 AUDIO
TITLE “Love Is Blind”
PERFORMER “Uriah Heep”
INDEX 01 15:33:57
TRACK 06 AUDIO
TITLE “Roll-Overture”
PERFORMER “Uriah Heep”
INDEX 01 19:11:66
TRACK 07 AUDIO
TITLE “Red Lights”
PERFORMER “Uriah Heep”
INDEX 01 21:31:34
TRACK 08 AUDIO
TITLE “Rollin’ The Rock”
PERFORMER “Uriah Heep”
INDEX 01 24:30:25
TRACK 09 AUDIO
TITLE “Straight Through The Heart”
PERFORMER “Uriah Heep”
INDEX 01 29:53:17
TRACK 10 AUDIO
TITLE “Weekend Warriors”
PERFORMER “Uriah Heep”
INDEX 01 33:43:04
TRACK 11 AUDIO
TITLE “Playing For Time (Bonus Track)”
PERFORMER “Uriah Heep”
INDEX 00 37:33:26
INDEX 01 37:37:72
TRACK 12 AUDIO
TITLE “Searching (Extended Demo) (Bonus Track)”
PERFORMER “Uriah Heep”
INDEX 01 42:04:63
TRACK 13 AUDIO
TITLE “The Other Side Of Midnight (Live) (Bonus Track)”
PERFORMER “Uriah Heep”
INDEX 00 46:55:45
INDEX 01 46:58:29
TRACK 14 AUDIO
TITLE “Lonely Nights (Live) (Bonus Track)”
PERFORMER “Uriah Heep”
INDEX 00 51:32:61
INDEX 01 51:34:40
TRACK 15 AUDIO
TITLE “Angel (Live) (Bonus Track)”
PERFORMER “Uriah Heep”
INDEX 00 58:18:56
INDEX 01 58:19:55


Leave a Reply

Your email address will not be published. Required fields are marked *

Enter the text from the image below
 

This site uses Akismet to reduce spam. Learn how your comment data is processed.