Uriah Heep – The Best Of… Part 1 (Remastered)




[Total: 0    Average: 0/5]

Artist: Uriah Heep
Year: 1996
Genre: Rock
Notes: Discogs
Add. Notes: Remastered
Cover incl.: Yes
Encoder: FLAC
Bitrate: ~900 kBit/s (44.1 kHz/16 Bit/s)
Log & Cue incl.: Yes
Size: 665,56 MB
Password: “slam” (without ” “)


All Downloads/Hosters are compatible

Download 1
Share-online.biz
KatFile.com
Rapidgator.net
Mexa.sh
Download 2
Share-online.biz
KatFile.com
Rapidgator.net
Mexa.sh

Tracklist:

1 - Gypsy - 2:58
2 - Bird Of Prey - 4:14
3 - Lady In Black - 4:45
4 - Salisbury (Edit) - 2:59
5 - July Morning - 10:33
6 - Look At Yourself - 5:11
7 - Easy Livin' - 2:38
8 - The Wizard - 3:01
9 - Sweet Lorraine - 4:16
10 - Stealin' - 4:52
11 - Suicidal Man - 3:40
12 - Return To Fantasy - 5:52
13 - Misty Eyes - 4:18
Bonus Tracks
14 - Easy Livin' (Live) - 3:02
15 - Stealin' (Live) - 5:45

EAC-Log, CUE-Sheed & NFO:

Click to open spoiler
Exact Audio Copy V1.0 beta 3 from 29. August 2011

EAC extraction logfile from 22. April 2012, 18:49

Uriah Heep / The Best of… Part 1

Used drive : TSSTcorpCDDVDW SH-S222A Adapter: 3 ID: 0

Read mode : Secure
Utilize accurate stream : Yes
Defeat audio cache : Yes
Make use of C2 pointers : No

Read offset correction : 6
Overread into Lead-In and Lead-Out : No
Fill up missing offset samples with silence : Yes
Delete leading and trailing silent blocks : No
Null samples used in CRC calculations : Yes
Used interface : Native Win32 interface for Win NT & 2000

Used output format : User Defined Encoder
Selected bitrate : 128 kBit/s
Quality : High
Add ID3 tag : No
Command line compressor : C:\Program Files\Exact Audio Copy\Flac\flac.exe
Additional command line options : -V -8 -T “Date=%year%” -T “Genre=%genre%” %source%

TOC of the extracted CD

Track | Start | Length | Start sector | End sector
———————————————————
1 | 0:00.00 | 2:58.12 | 0 | 13361
2 | 2:58.12 | 4:14.25 | 13362 | 32436
3 | 7:12.37 | 4:45.03 | 32437 | 53814
4 | 11:57.40 | 2:59.25 | 53815 | 67264
5 | 14:56.65 | 10:33.20 | 67265 | 114759
6 | 25:30.10 | 5:10.52 | 114760 | 138061
7 | 30:40.62 | 2:37.53 | 138062 | 149889
8 | 33:18.40 | 3:00.55 | 149890 | 163444
9 | 36:19.20 | 4:15.67 | 163445 | 182636
10 | 40:35.12 | 4:51.43 | 182637 | 204504
11 | 45:26.55 | 3:40.05 | 204505 | 221009
12 | 49:06.60 | 5:51.52 | 221010 | 247386
13 | 54:58.37 | 4:18.25 | 247387 | 266761
14 | 59:16.62 | 3:01.70 | 266762 | 280406
15 | 62:18.57 | 5:45.08 | 280407 | 306289

Range status and errors

Selected range

Filename F:\ALIK\Uriah Heep – Discography\Compilations\1996. The Best Of…Part 1\1996. The Best Of…Part 1 (Castle ESMCD 418, England)\Uriah Heep – The Best of… Part 1.wav

Peak level 100.0 %
Extraction speed 5.6 X
Range quality 99.9 %
Test CRC B01BCE7D
Copy CRC B01BCE7D
Copy OK

No errors occurred

AccurateRip summary

Track 1 accurately ripped (confidence 4) [3FC84D4C] (AR v2)
Track 2 accurately ripped (confidence 4) [CBB95F66] (AR v2)
Track 3 accurately ripped (confidence 4) [C3F6D517] (AR v2)
Track 4 accurately ripped (confidence 4) [28D3631A] (AR v2)
Track 5 accurately ripped (confidence 4) [B5BA1215] (AR v2)
Track 6 accurately ripped (confidence 4) [B3BEEAF1] (AR v2)
Track 7 accurately ripped (confidence 4) [B8D1A42A] (AR v2)
Track 8 accurately ripped (confidence 4) [B9874C39] (AR v2)
Track 9 accurately ripped (confidence 4) [2986D3DE] (AR v2)
Track 10 accurately ripped (confidence 4) [910C5BF5] (AR v2)
Track 11 accurately ripped (confidence 4) [C1A121EE] (AR v2)
Track 12 accurately ripped (confidence 4) [77F37F58] (AR v2)
Track 13 accurately ripped (confidence 4) [B03E4131] (AR v2)
Track 14 accurately ripped (confidence 4) [B94042A2] (AR v2)
Track 15 accurately ripped (confidence 4) [838E3408] (AR v2)

All tracks accurately ripped

End of status report

—- CUETools DB Plugin V2.1.3

[CTDB TOCID: FxCCTjP40knYqDFPJNfQY6Fg.dk-] found, Submit result: FxCCTjP40knYqDFPJNfQY6Fg.dk- has been confirmed
[5c4e8993] (37/39) Accurately ripped
[d48fd1e8] (01/39) Differs in 24 samples @26:02:04,66:02:42
[cc01cc2e] (01/39) Differs in 17983 samples @41:19:25-41:19:40,46:34:16
You can use CUETools to repair this rip.

==== Log checksum 85D1BC545171B13A7B74791A01B661DDF04151576A95B00F454541BC946A9E99 ====

REM GENRE “Hard Rock”
REM DATE 1996
REM DISCID CB0FF30F
REM COMMENT “ExactAudioCopy v1.0b3”
PERFORMER “Uriah Heep”
TITLE “The Best of… Part 1”
FILE “Uriah Heep – The Best of… Part 1.flac” WAVE
TRACK 01 AUDIO
TITLE “Gypsy (single edit remix)”
PERFORMER “Uriah Heep”
INDEX 01 00:00:00
TRACK 02 AUDIO
TITLE “Bird of Prey”
PERFORMER “Uriah Heep”
INDEX 00 02:55:32
INDEX 01 02:58:12
TRACK 03 AUDIO
TITLE “Lady in Black (single edit remix)”
PERFORMER “Uriah Heep”
INDEX 00 07:09:57
INDEX 01 07:12:37
TRACK 04 AUDIO
TITLE “Salisbury (U.S. promo single edit)”
PERFORMER “Uriah Heep”
INDEX 00 11:54:60
INDEX 01 11:57:40
TRACK 05 AUDIO
TITLE “July Morning”
PERFORMER “Uriah Heep”
INDEX 00 14:54:10
INDEX 01 14:56:65
TRACK 06 AUDIO
TITLE “Look at Yourself”
PERFORMER “Uriah Heep”
INDEX 00 25:27:30
INDEX 01 25:30:10
TRACK 07 AUDIO
TITLE “Easy Livin'”
PERFORMER “Uriah Heep”
INDEX 00 30:38:07
INDEX 01 30:40:62
TRACK 08 AUDIO
TITLE “The Wizard”
PERFORMER “Uriah Heep”
INDEX 00 33:15:60
INDEX 01 33:18:40
TRACK 09 AUDIO
TITLE “Sweet Lorraine”
PERFORMER “Uriah Heep”
INDEX 00 36:16:40
INDEX 01 36:19:20
TRACK 10 AUDIO
TITLE “Stealin’ (single edit remix)”
PERFORMER “Uriah Heep”
INDEX 00 40:32:32
INDEX 01 40:35:12
TRACK 11 AUDIO
TITLE “Suicidal Man”
PERFORMER “Uriah Heep”
INDEX 00 45:24:00
INDEX 01 45:26:55
TRACK 12 AUDIO
TITLE “Return to Fantasy”
PERFORMER “Uriah Heep”
INDEX 00 49:04:05
INDEX 01 49:06:60
TRACK 13 AUDIO
TITLE “Misty Eyes”
PERFORMER “Uriah Heep”
INDEX 00 54:55:57
INDEX 01 54:58:37
TRACK 14 AUDIO
TITLE “Easy Livin’ (live Shepperton 1974)”
PERFORMER “Uriah Heep”
INDEX 00 59:14:07
INDEX 01 59:16:62
TRACK 15 AUDIO
TITLE “Stealin’ (live Shepperton 1974)”
PERFORMER “Uriah Heep”
INDEX 01 62:18:57


Spread the Download

Leave a Reply

Your email address will not be published. Required fields are marked *

Enter the text from the image below
 

This site uses Akismet to reduce spam. Learn how your comment data is processed.