Uriah Heep – Firefly (Remastered Deluxe Edition)




No Cover available

Artist: Uriah Heep
Year: 1977/2004
Genre: Rock
Notes: Discogs
Add. Notes: Remastered Deluxe Edition
Cover incl.: Yes
Encoder: FLAC
Bitrate: ~900 kBit/s (44.1 kHz/16 Bit/s)
Log & Cue incl.: Yes/Yes
Size: 536,6 MB
Password: “slam” (without ” “)


All Downloads/Hosters are compatible

Download 1
KatFile.com
Turbobit.net
FileFactory.com
Rapidgator.net
ddl.to
Download 2
KatFile.com
Turbobit.net
FileFactory.com
Rapidgator.net
ddl.to

Tracklist:

1 The Hanging Tree 3:41
2 Been Away Too Long 5:03
3 Who Needs Me 3:38
4 Wise Man 4:40
5 Do You Know 3:12
6 Rollin' On 6:21
7 Sympathy 4:44
8 Firefly 6:17

Bonus Tracks
9 Crime Of Passion (B-Side) 3:36
10 A Far Better Way (Demo Mix) 6:07
11 I Always Knew (Previously Unreleased) 4:02
12 Dance Dance Dance (Previously Unreleased) 3:43
13 Been Away Too Long (Alternative Version) 5:00
14 Do You Know (Demo Mix) 3:13
15 Who Needs Me (Alternative Live Version) 9:48
16 Wise Man (T.V. Backing Track) 4:51

EAC-Log, CUE-Sheed & NFO:

Click to open spoiler
Exact Audio Copy V1.0 beta 3 from 29. August 2011

EAC extraction logfile from 12. November 2013, 16:23

Uriah Heep / Firefly (Expanded Deluxe Edition)

Used drive : SONY BD RW BDX-S600U Adapter: 2 ID: 0

Read mode : Secure
Utilize accurate stream : Yes
Defeat audio cache : Yes
Make use of C2 pointers : No

Read offset correction : 48
Overread into Lead-In and Lead-Out : No
Fill up missing offset samples with silence : Yes
Delete leading and trailing silent blocks : No
Null samples used in CRC calculations : Yes
Used interface : Native Win32 interface for Win NT & 2000

Used output format : User Defined Encoder
Selected bitrate : 128 kBit/s
Quality : High
Add ID3 tag : No
Command line compressor : C:\Program Files (x86)\Exact Audio Copy\Flac\flac.exe
Additional command line options : -V -8 -T “Date=%year%” -T “Genre=%genre%” %source%

TOC of the extracted CD

Track | Start | Length | Start sector | End sector
———————————————————
1 | 0:00.00 | 3:41.54 | 0 | 16628
2 | 3:41.54 | 5:03.61 | 16629 | 39414
3 | 8:45.40 | 3:39.40 | 39415 | 55879
4 | 12:25.05 | 4:40.51 | 55880 | 76930
5 | 17:05.56 | 3:12.70 | 76931 | 91400
6 | 20:18.51 | 6:21.42 | 91401 | 120017
7 | 26:40.18 | 4:44.08 | 120018 | 141325
8 | 31:24.26 | 6:21.18 | 141326 | 169918
9 | 37:45.44 | 3:37.52 | 169919 | 186245
10 | 41:23.21 | 5:57.73 | 186246 | 213093
11 | 47:21.19 | 4:03.60 | 213094 | 231378
12 | 51:25.04 | 3:46.28 | 231379 | 248356
13 | 55:11.32 | 5:01.08 | 248357 | 270939
14 | 60:12.40 | 3:15.36 | 270940 | 285600
15 | 63:28.01 | 9:49.11 | 285601 | 329786
16 | 73:17.12 | 4:50.58 | 329787 | 351594

Range status and errors

Selected range

Filename D:\Uriah Heep – Discography\Studio\1977. Firefly\1977. Firefly Expanded De-Luxe Edition (Sanctuary SMRCD107,Germany)\Uriah Heep – Firefly (Expanded Deluxe Edition).wav

Peak level 100.0 %
Extraction speed 16.7 X
Range quality 100.0 %
Test CRC BD908D2C
Copy CRC BD908D2C
Copy OK

No errors occurred

AccurateRip summary

Track 1 accurately ripped (confidence 12) [9F214D85] (AR v2)
Track 2 accurately ripped (confidence 12) [93D0015A] (AR v2)
Track 3 accurately ripped (confidence 12) [72B33C89] (AR v2)
Track 4 accurately ripped (confidence 12) [C4B1ADD1] (AR v2)
Track 5 accurately ripped (confidence 12) [FB8A774A] (AR v2)
Track 6 accurately ripped (confidence 12) [2D9FA8D1] (AR v2)
Track 7 accurately ripped (confidence 12) [45A95211] (AR v2)
Track 8 accurately ripped (confidence 12) [8FD2D85B] (AR v2)
Track 9 accurately ripped (confidence 12) [7CCC8FE3] (AR v2)
Track 10 accurately ripped (confidence 12) [E04D873B] (AR v2)
Track 11 accurately ripped (confidence 12) [C8E6F34C] (AR v2)
Track 12 accurately ripped (confidence 12) [9E7BC88D] (AR v2)
Track 13 accurately ripped (confidence 12) [39C04967] (AR v2)
Track 14 accurately ripped (confidence 12) [7182676E] (AR v2)
Track 15 accurately ripped (confidence 12) [626F6574] (AR v2)
Track 16 accurately ripped (confidence 12) [AFA853F5] (AR v2)

All tracks accurately ripped

End of status report

—- CUETools DB Plugin V2.1.3

[CTDB TOCID: pAcK6NsqyKwxnUgp3nOQd6UrZ2E-] found, Submit result: pAcK6NsqyKwxnUgp3nOQd6UrZ2E- has been confirmed
[738d49e4] (18/19) Accurately ripped
[1cfcac46] (01/19) No match

==== Log checksum BC1169608135F21B147AD959CEE5DFB25E56F0E78BC28E7F084223A00D365557 ====

REM GENRE “Hard Rock”
REM DATE 1977
REM DISCID DC124F10
REM COMMENT “ExactAudioCopy v1.0b3”
PERFORMER “Uriah Heep”
TITLE “Firefly (Expanded Deluxe Edition)”
FILE “Uriah Heep – Firefly (Expanded Deluxe Edition).flac” WAVE
TRACK 01 AUDIO
TITLE “The Hanging Tree”
PERFORMER “Uriah Heep”
ISRC GBAJE7700005
INDEX 01 00:00:00
TRACK 02 AUDIO
TITLE “Been Away Too Long”
PERFORMER “Uriah Heep”
ISRC GBAJE7700361
INDEX 00 03:41:18
INDEX 01 03:41:54
TRACK 03 AUDIO
TITLE “Who Needs Me”
PERFORMER “Uriah Heep”
ISRC GBAJE7700362
INDEX 00 08:44:22
INDEX 01 08:45:40
TRACK 04 AUDIO
TITLE “Wise Man”
PERFORMER “Uriah Heep”
ISRC GBAJE7700011
INDEX 00 12:23:22
INDEX 01 12:25:05
TRACK 05 AUDIO
TITLE “Do You Know”
PERFORMER “Uriah Heep”
ISRC GBAJE7700363
INDEX 00 17:05:29
INDEX 01 17:05:56
TRACK 06 AUDIO
TITLE “Rollin’ On”
PERFORMER “Uriah Heep”
ISRC GBAJE7700364
INDEX 00 20:18:02
INDEX 01 20:18:51
TRACK 07 AUDIO
TITLE “Sympathy”
PERFORMER “Uriah Heep”
ISRC GBAJE7700365
INDEX 00 26:39:22
INDEX 01 26:40:18
TRACK 08 AUDIO
TITLE “Firefly”
PERFORMER “Uriah Heep”
ISRC GBAJE7700010
INDEX 00 31:23:48
INDEX 01 31:24:26
TRACK 09 AUDIO
TITLE “Crime Of Passion (B-Side to ‘Sympathy’ Single)”
PERFORMER “Uriah Heep”
ISRC GBAJE7700366
INDEX 00 37:40:54
INDEX 01 37:45:44
TRACK 10 AUDIO
TITLE “A Far Better Way (Demo Mix)”
PERFORMER “Uriah Heep”
ISRC GBAJE9600263
INDEX 00 41:21:28
INDEX 01 41:23:21
TRACK 11 AUDIO
TITLE “I Always Knew (Firefly Out-Take)”
PERFORMER “Uriah Heep”
ISRC GBAJE0400729
INDEX 00 47:19:54
INDEX 01 47:21:19
TRACK 12 AUDIO
TITLE “Dance Dance Dance (Firefly Out-Take)”
PERFORMER “Uriah Heep”
ISRC GBAJE0400730
INDEX 00 51:23:15
INDEX 01 51:25:04
TRACK 13 AUDIO
TITLE “Been Away Too Long (Alternative Version)”
PERFORMER “Uriah Heep”
ISRC GBAJE0400731
INDEX 00 55:08:44
INDEX 01 55:11:32
TRACK 14 AUDIO
TITLE “Do You Know (Demo Mix)”
PERFORMER “Uriah Heep”
ISRC GBAJE0400732
INDEX 00 60:11:19
INDEX 01 60:12:40
TRACK 15 AUDIO
TITLE “Who Needs Me (Alternative Live Version)”
PERFORMER “Uriah Heep”
ISRC GBAJE0400733
INDEX 00 63:25:70
INDEX 01 63:28:01
TRACK 16 AUDIO
TITLE “Wise Man (T.V. Backing Track)”
PERFORMER “Uriah Heep”
ISRC GBAJE9700291
INDEX 00 73:16:17
INDEX 01 73:17:12


Leave a Reply

Your email address will not be published. Required fields are marked *

This site uses Akismet to reduce spam. Learn how your comment data is processed.