Uriah Heep – Firefly (Reissue)




Artist: Uriah Heep
Year: 1977/1987
Genre: Rock
Notes: Discogs
Add. Notes: Reissue
Cover incl.: Yes
Encoder: FLAC
Bitrate: ~800 kBit/s (44.1 kHz/16 Bit/s)
Log & Cue incl.: Yes
Size: 323,33 MB
Password: “slam” (without ” “)


All Downloads/Hosters are compatible

Download 1
Turbobit.net
KatFile.com
Rapidgator.net
Download 2
Turbobit.net
KatFile.com
Rapidgator.net

Tracklist:

1. The Hanging Tree 
2. Been Away Too Long 
3. Who Needs Me 
4. Wise Man 
5. Do You Know 
6. Rollin' On 
7. Sympathy 
8. Firefly

EAC-Log, CUE-Sheed & NFO:

Click to open spoiler
Exact Audio Copy V1.0 beta 2 from 29. April 2011

EAC extraction logfile from 10. December 2011, 12:46

Uriah Heep / Firefly

Used drive : Optiarc DVD RW AD-7240S Adapter: 1 ID: 0

Read mode : Secure
Utilize accurate stream : Yes
Defeat audio cache : Yes
Make use of C2 pointers : No

Read offset correction : 48
Overread into Lead-In and Lead-Out : No
Fill up missing offset samples with silence : Yes
Delete leading and trailing silent blocks : No
Null samples used in CRC calculations : Yes
Used interface : Native Win32 interface for Win NT & 2000

Used output format : User Defined Encoder
Selected bitrate : 1024 kBit/s
Quality : High
Add ID3 tag : Yes
Command line compressor : C:\Program Files\Exact Audio Copy\Flac\flac.exe
Additional command line options : -6 -V -T “ARTIST=%artist%” -T “TITLE=%title%” -T “ALBUM=%albumtitle%” -T “DATE=%year%” -T “TRACKNUMBER=%tracknr%” -T “GENRE=%genre%” -T “COMMENT=%comment%” %source% -o %dest%

TOC of the extracted CD

Track | Start | Length | Start sector | End sector
———————————————————
1 | 0:00.33 | 3:43.07 | 33 | 16764
2 | 3:43.40 | 5:05.60 | 16765 | 39699
3 | 8:49.25 | 3:40.00 | 39700 | 56199
4 | 12:29.25 | 4:42.73 | 56200 | 77422
5 | 17:12.23 | 3:15.42 | 77423 | 92089
6 | 20:27.65 | 6:23.08 | 92090 | 120822
7 | 26:50.73 | 4:45.55 | 120823 | 142252
8 | 31:36.53 | 6:19.47 | 142253 | 170724

Range status and errors

Selected range

Filename E:\music\Uriah Heep\Studio\1977. Firefly\1977. Firefly (Bronze Rec. 260 131, Germany)\Uriah Heep – Firefly.wav

Peak level 100.0 %
Extraction speed 3.5 X
Range quality 100.0 %
Test CRC 500A9090
Copy CRC 500A9090
Copy OK

No errors occurred

AccurateRip summary

Track 1 not present in database
Track 2 not present in database
Track 3 not present in database
Track 4 not present in database
Track 5 not present in database
Track 6 not present in database
Track 7 not present in database
Track 8 not present in database

None of the tracks are present in the AccurateRip database

End of status report

==== Log checksum A6128C44FA330132DEBDE290143C1BA52D2C678E5D224DB5BCF101D3D7A96E5E ====

REM GENRE “Hard Rock”
REM DATE 1977
REM DISCID 5B08E408
REM COMMENT “ExactAudioCopy v1.0b2”
PERFORMER “Uriah Heep”
TITLE “Firefly”
FILE “Uriah Heep – Firefly.flac” WAVE
TRACK 01 AUDIO
TITLE “The Hanging Tree”
PERFORMER “Uriah Heep”
INDEX 00 00:00:00
INDEX 01 00:00:33
TRACK 02 AUDIO
TITLE “Been Away Too Long”
PERFORMER “Uriah Heep”
INDEX 00 03:42:03
INDEX 01 03:43:40
TRACK 03 AUDIO
TITLE “Who Needs Me”
PERFORMER “Uriah Heep”
INDEX 00 08:48:20
INDEX 01 08:49:25
TRACK 04 AUDIO
TITLE “Wise Man”
PERFORMER “Uriah Heep”
INDEX 00 12:27:45
INDEX 01 12:29:25
TRACK 05 AUDIO
TITLE “Do You Know”
PERFORMER “Uriah Heep”
INDEX 00 17:10:30
INDEX 01 17:12:23
TRACK 06 AUDIO
TITLE “Rollin’ On”
PERFORMER “Uriah Heep”
INDEX 00 20:25:55
INDEX 01 20:27:65
TRACK 07 AUDIO
TITLE “Sympathy”
PERFORMER “Uriah Heep”
INDEX 00 26:49:40
INDEX 01 26:50:73
TRACK 08 AUDIO
TITLE “Firefly”
PERFORMER “Uriah Heep”
INDEX 00 31:35:73
INDEX 01 31:36:53


Leave a Reply

Your email address will not be published. Required fields are marked *

This site uses Akismet to reduce spam. Learn how your comment data is processed.