Uriah Heep – Firefly (Japanese Edition)




Artist: Uriah Heep
Year: 1977/1992
Genre: Rock
Notes: Discogs
Add. Notes: Japanese Edition
Cover incl.: Yes
Encoder: FLAC
Bitrate: ~800 kBit/s (44.1 kHz/16 Bit/s)
Log & Cue incl.: Yes
Size: 258,05 MB
Password: “slam” (without ” “)


All Downloads/Hosters are compatible

Download 1
Turbobit.net
KatFile.com
Rapidgator.net
Download 2
Turbobit.net
KatFile.com
Rapidgator.net

Tracklist:

01. The Hanging Tree
02. Been Away Too Long
03. Who Needs Me 
04. Wise Man
05. Do You Know
06. Rollin' On 
07. Sympathy 
08. Firefly 

EAC-Log, CUE-Sheed & NFO:

Click to open spoiler
Exact Audio Copy V0.99 prebeta 5 from 4. May 2009

Отчёт EAC об извлечении, выполненном 11. марта 2011, 22:38

Uriah Heep / Firefly

Дисковод: ASUS SDRW-08D2S-U Adapter: 2 ID: 0

Режим чтения : Достоверность
Использование точного потока : Да
Отключение кэша аудио : Да
Использование указателей C2 : Нет

Коррекция смещения при чтении : 103
Способность читать области Lead-in и Lead-out : Нет
Заполнение пропущенных сэмплов тишиной : Да
Удаление блоков с тишиной в начале и конце : Нет
При вычислениях CRC использовались нулевые сэмплы : Да
Интерфейс : Встроенный Win32-интерфейс для Win NT/2000

Выходной формат : Пользовательский кодировщик
Выбранный битрейт : 768 kBit/s
Качество : Высокий
Добавление ID3-тэга : Нет
Утилита сжатия : C:\Program Files\Exact Audio Copy\FLAC\FLAC.EXE
Дополнительные параметры : -8 -V %s

TOC извлечённого CD

Трек | Старт | Длительность | Начальный сектор | Конечный сектор
———————————————————————
1 | 0:00.00 | 3:41.50 | 0 | 16624
2 | 3:41.50 | 5:03.68 | 16625 | 39417
3 | 8:45.43 | 3:39.45 | 39418 | 55887
4 | 12:25.13 | 4:40.70 | 55888 | 76957
5 | 17:06.08 | 3:15.35 | 76958 | 91617
6 | 20:21.43 | 6:22.40 | 91618 | 120307
7 | 26:44.08 | 4:48.57 | 120308 | 141964
8 | 31:32.65 | 6:19.30 | 141965 | 170419

Характеристики диапазона извлечения и сообщения об ошибках

Выбранный диапазон

Имя файла D:\uTorrent.compl\Uriah Heep – Studio Albums 1970 – 1977 ( Japan 1st & 2nd Press Rare )\’Firefly’ 1977 ( 1992, Japan 1st Press, Teichiku TECX-25388 )\Uriah Heep – Firefly.wav

Пиковый уровень 100.0 %
Качество диапазона 100.0 %
CRC теста 83CA06FF
CRC копии 83CA06FF
Копирование… OK

Ошибок не произошло

AccurateRip: сводка

Трек 1 нет в базе данных
Трек 2 нет в базе данных
Трек 3 нет в базе данных
Трек 4 нет в базе данных
Трек 5 нет в базе данных
Трек 6 нет в базе данных
Трек 7 нет в базе данных
Трек 8 нет в базе данных

Ни одного трека нет в базе AccurateRip

Конец отчёта

REM GENRE “Hard Rock”
REM DATE 1977
REM DISCID 5F08E008
REM COMMENT “ExactAudioCopy v0.99pb5”
PERFORMER “Uriah Heep”
TITLE “Firefly”
FILE “Uriah Heep – Firefly.flac” WAVE
TRACK 01 AUDIO
TITLE “The Hanging Tree”
PERFORMER “Uriah Heep”
INDEX 01 00:00:00
TRACK 02 AUDIO
TITLE “Been Away Too Long”
PERFORMER “Uriah Heep”
INDEX 01 03:41:50
TRACK 03 AUDIO
TITLE “Who Needs Me”
PERFORMER “Uriah Heep”
INDEX 01 08:45:43
TRACK 04 AUDIO
TITLE “Wise Man”
PERFORMER “Uriah Heep”
INDEX 01 12:25:13
TRACK 05 AUDIO
TITLE “Do You Know”
PERFORMER “Uriah Heep”
INDEX 01 17:06:08
TRACK 06 AUDIO
TITLE “Rollin’ On”
PERFORMER “Uriah Heep”
INDEX 01 20:21:43
TRACK 07 AUDIO
TITLE “Sympathy”
PERFORMER “Uriah Heep”
INDEX 01 26:44:08
TRACK 08 AUDIO
TITLE “Firefly”
PERFORMER “Uriah Heep”
INDEX 01 31:32:65


Leave a Reply

Your email address will not be published. Required fields are marked *

This site uses Akismet to reduce spam. Learn how your comment data is processed.