Uriah Heep – Fallen Angel




[Total: 0    Average: 0/5]

Artist: Uriah Heep
Year: 1989
Genre: Rock
Notes: Discogs
Add. Notes:
Cover incl.: Yes
Encoder: FLAC
Bitrate: ~900 kBit/s (44.1 kHz/16 Bit/s)
Log & Cue incl.: Yes
Size: 350,6 MB
Password: “slam” (without ” “)


All Downloads/Hosters are compatible

Download 1
Share-online.biz
KatFile.com
Rapidgator.net
Download 2
Share-online.biz
KatFile.com
Rapidgator.net

Tracklist:

1 - Woman Of The Night - 4:07
2 - Falling In Love - 2:58
3 - One More Night (Last Farewell) - 3:35
4 - Put Your Lovin' On Me - 4:08
5 - Come Back To Me - 4:22
6 - Whad' Ya Say - 3:40
7 - Save It - 3:33
8 - Love Or Nothing - 3:02
9 - I'm Alive - 4:17
10 - Fallen Angel - 4:51

EAC-Log, CUE-Sheed & NFO:

Click to open spoiler
Exact Audio Copy V0.99 prebeta 5 from 4. May 2009

Отчёт EAC об извлечении, выполненном 29. мая 2011, 14:10

Uriah Heep / Fallen Angel

Дисковод: Optiarc DVD RW AD-7240S Adapter: 1 ID: 0

Режим чтения : Достоверность
Использование точного потока : Да
Отключение кэша аудио : Да
Использование указателей C2 : Нет

Коррекция смещения при чтении : 48
Способность читать области Lead-in и Lead-out : Нет
Заполнение пропущенных сэмплов тишиной : Да
Удаление блоков с тишиной в начале и конце : Нет
При вычислениях CRC использовались нулевые сэмплы : Да
Интерфейс : Встроенный Win32-интерфейс для Win NT/2000

Выходной формат : Пользовательский кодировщик
Выбранный битрейт : 768 kBit/s
Качество : Высокий
Добавление ID3-тэга : Нет
Утилита сжатия : C:\Program Files\Exact Audio Copy\FLAC\FLAC.EXE
Дополнительные параметры : -6 -V -T “ARTIST=%a” -T “TITLE=%t” -T “ALBUM=%g” -T “DATE=%y” -T “TRACKNUMBER=%n” -T “GENRE=%m” -T “COMMENT=%e” %s -o %d

TOC извлечённого CD

Трек | Старт | Длительность | Начальный сектор | Конечный сектор
———————————————————————
1 | 0:00.32 | 4:07.30 | 32 | 18586
2 | 4:07.62 | 2:58.38 | 18587 | 31974
3 | 7:06.25 | 3:35.00 | 31975 | 48099
4 | 10:41.25 | 4:08.07 | 48100 | 66706
5 | 14:49.32 | 4:22.25 | 66707 | 86381
6 | 19:11.57 | 3:40.20 | 86382 | 102901
7 | 22:52.02 | 3:33.53 | 102902 | 118929
8 | 26:25.55 | 3:02.05 | 118930 | 132584
9 | 29:27.60 | 4:17.20 | 132585 | 151879
10 | 33:45.05 | 4:51.32 | 151880 | 173736

Характеристики диапазона извлечения и сообщения об ошибках

Выбранный диапазон

Имя файла E:\music\Uriah Heep\1978. Fallen Angel\Uriah Heep – Fallen Angel.wav

Пиковый уровень 100.0 %
Качество диапазона 99.9 %
CRC теста D53615AB
CRC копии D53615AB
Копирование… OK

Ошибок не произошло

AccurateRip: сводка

Трек 1 точное извлечение (доверие 7) [73D359F3]
Трек 2 точное извлечение (доверие 7) [6C81AD74]
Трек 3 точное извлечение (доверие 7) [2B758D7B]
Трек 4 точное извлечение (доверие 7) [83C7EB1E]
Трек 5 точное извлечение (доверие 7) [44928080]
Трек 6 точное извлечение (доверие 7) [4909F19D]
Трек 7 точное извлечение (доверие 7) [3C309B36]
Трек 8 точное извлечение (доверие 8) [ED45C3B8]
Трек 9 точное извлечение (доверие 7) [DA629E8E]
Трек 10 точное извлечение (доверие 6) [F4504883]

Все треки извлечены точно

Конец отчёта

REM GENRE Rock
REM DATE 1978
REM DISCID 8E090C0A
REM COMMENT “ExactAudioCopy v0.99pb5”
PERFORMER “Uriah Heep”
TITLE “Fallen Angel”
FILE “Uriah Heep – Fallen Angel.flac” WAVE
TRACK 01 AUDIO
TITLE “Woman Of The Night”
PERFORMER “Uriah Heep”
INDEX 00 00:00:00
INDEX 01 00:00:32
TRACK 02 AUDIO
TITLE “Falling In Love”
PERFORMER “Uriah Heep”
INDEX 00 04:06:17
INDEX 01 04:07:62
TRACK 03 AUDIO
TITLE “One More Night (Last Farewell)”
PERFORMER “Uriah Heep”
INDEX 00 07:04:27
INDEX 01 07:06:25
TRACK 04 AUDIO
TITLE “Put Your Lovin’ On Me”
PERFORMER “Uriah Heep”
INDEX 00 10:39:50
INDEX 01 10:41:25
TRACK 05 AUDIO
TITLE “Come Back To Me”
PERFORMER “Uriah Heep”
INDEX 00 14:49:30
INDEX 01 14:49:32
TRACK 06 AUDIO
TITLE “Whad’ Ya Say”
PERFORMER “Uriah Heep”
INDEX 00 19:09:30
INDEX 01 19:11:57
TRACK 07 AUDIO
TITLE “Save It”
PERFORMER “Uriah Heep”
INDEX 01 22:52:02
TRACK 08 AUDIO
TITLE “Love Or Nothing”
PERFORMER “Uriah Heep”
INDEX 00 26:25:12
INDEX 01 26:25:55
TRACK 09 AUDIO
TITLE “I’m Alive”
PERFORMER “Uriah Heep”
INDEX 00 29:27:57
INDEX 01 29:27:60
TRACK 10 AUDIO
TITLE “Fallen Angel”
PERFORMER “Uriah Heep”
INDEX 00 33:44:72
INDEX 01 33:45:05


Spread the Download

Leave a Reply

Your email address will not be published. Required fields are marked *

Enter the text from the image below
 

This site uses Akismet to reduce spam. Learn how your comment data is processed.