Uriah Heep – Different World (Remastered)




Artist: Uriah Heep
Year: 1991/2006
Genre: Rock
Notes: Discogs
Add. Notes: Remastered
Cover incl.: Yes
Encoder: FLAC
Bitrate: ~1000 kBit/s (44.1 kHz/16 Bit/s)
Log & Cue incl.: Yes
Size: 704,18 MB
Password: “slam” (without ” “)


All Downloads/Hosters are compatible

Download 1
Turbobit.net
NitroFlare.com
KatFile.com
Rapidgator.net
Download 2
Turbobit.net
NitroFlare.com
KatFile.com
Rapidgator.net

Tracklist:

1. Blood On Stone 	
2. Which Way Will The Wind Blow
3. All God's Children 	
4. All For One 	
5. Different World 	
6. Step By Step 	
7. Seven Days 	
8. First Touch 	
9. One On One 	
10. Cross That Line
Bonus Tracks
11. Stand Back (CD Only Album Track)
12. Powers Of Addiction (Previously Unreleased Demo)
13. Holy Roller (Previously Unreleased Extended Version)
14. Blood On Stone (Previously Unreleased Extended 
Version)
15. Cross That Line (Previously Unreleased Extended 
Version)

EAC-Log, CUE-Sheed & NFO:

Click to open spoiler
REM DATE 1991
REM DISCID CD10610F
REM COMMENT “ExactAudioCopy v1.0b3”
PERFORMER “Uriah Heep”
TITLE “Different World”
FILE “Uriah Heep – Different World.flac” WAVE
TRACK 01 AUDIO
TITLE “Blood on Stone”
PERFORMER “Uriah Heep”Exact Audio Copy V1.0 beta 3 from 29. August 2011

EAC extraction logfile from 10. February 2014, 0:01

Uriah Heep / Different World

Used drive : Optiarc DVD RW AD-7240S Adapter: 1 ID: 1

Read mode : Secure
Utilize accurate stream : Yes
Defeat audio cache : Yes
Make use of C2 pointers : No

Read offset correction : 48
Overread into Lead-In and Lead-Out : No
Fill up missing offset samples with silence : Yes
Delete leading and trailing silent blocks : No
Null samples used in CRC calculations : Yes
Used interface : Native Win32 interface for Win NT & 2000

Used output format : User Defined Encoder
Selected bitrate : 128 kBit/s
Quality : High
Add ID3 tag : No
Command line compressor : C:\Program Files (x86)\Exact Audio Copy\Flac\flac.exe
Additional command line options : -V -8 -T “Date=%year%” -T “Genre=%genre%” %source%

TOC of the extracted CD

Track | Start | Length | Start sector | End sector
———————————————————
1 | 0:00.00 | 4:39.13 | 0 | 20937
2 | 4:39.13 | 4:50.27 | 20938 | 42714
3 | 9:29.40 | 4:18.42 | 42715 | 62106
4 | 13:48.07 | 4:25.73 | 62107 | 82054
5 | 18:14.05 | 4:13.19 | 82055 | 101048
6 | 22:27.24 | 4:07.26 | 101049 | 119599
7 | 26:34.50 | 3:34.45 | 119600 | 135694
8 | 30:09.20 | 3:53.14 | 135695 | 153183
9 | 34:02.34 | 4:03.50 | 153184 | 171458
10 | 38:06.09 | 5:34.43 | 171459 | 196551
11 | 43:40.52 | 3:56.57 | 196552 | 214308
12 | 47:37.34 | 4:11.54 | 214309 | 233187
13 | 51:49.13 | 5:02.37 | 233188 | 255874
14 | 56:51.50 | 7:02.57 | 255875 | 287581
15 | 63:54.32 | 5:59.11 | 287582 | 314517

Range status and errors

Selected range

Filename D:\Uriah Heep – Discography\Studio\1991. Different World\1991. Different World De-luxe Edition (Sanctuary SMRCD324, EU)\Uriah Heep – Different World.wav

Peak level 99.9 %
Extraction speed 4.4 X
Range quality 100.0 %
Test CRC 76610671
Copy CRC 76610671
Copy OK

No errors occurred

AccurateRip summary

Track 1 cannot be verified as accurate (confidence 3) [1C8219C1], AccurateRip returned [A5954BFB] (AR v2)
Track 2 cannot be verified as accurate (confidence 3) [41A17595], AccurateRip returned [D053460A] (AR v2)
Track 3 cannot be verified as accurate (confidence 3) [AD2550BC], AccurateRip returned [7C6A1FE2] (AR v2)
Track 4 cannot be verified as accurate (confidence 3) [E2DAA066], AccurateRip returned [3997F9DD] (AR v2)
Track 5 cannot be verified as accurate (confidence 3) [9C42D5B4], AccurateRip returned [0FC37101] (AR v2)
Track 6 cannot be verified as accurate (confidence 3) [9B001527], AccurateRip returned [EF9C114D] (AR v2)
Track 7 cannot be verified as accurate (confidence 3) [E20D9D19], AccurateRip returned [04FE5B26] (AR v2)
Track 8 cannot be verified as accurate (confidence 3) [3D0B2DEF], AccurateRip returned [8E0B5E8D] (AR v2)
Track 9 cannot be verified as accurate (confidence 3) [31612AC1], AccurateRip returned [BB090274] (AR v2)
Track 10 cannot be verified as accurate (confidence 3) [41E851E3], AccurateRip returned [B84A7518] (AR v2)
Track 11 cannot be verified as accurate (confidence 3) [FC693EA4], AccurateRip returned [5C11E890] (AR v2)
Track 12 cannot be verified as accurate (confidence 3) [72F19001], AccurateRip returned [60BDFA14] (AR v2)
Track 13 cannot be verified as accurate (confidence 3) [3A98D33B], AccurateRip returned [07B9443E] (AR v2)
Track 14 cannot be verified as accurate (confidence 3) [FA8D92CA], AccurateRip returned [B627100A] (AR v2)
Track 15 cannot be verified as accurate (confidence 3) [E0014E01], AccurateRip returned [77761BFC] (AR v2)

No tracks could be verified as accurate
You may have a different pressing from the one(s) in the database

End of status report

—- CUETools DB Plugin V2.1.3

[CTDB TOCID: aqHPgquO0BzJROCwGRvdfBn6TKw-] found, Submit result: aqHPgquO0BzJROCwGRvdfBn6TKw- has been confirmed
[d267784b] (7/7) Accurately ripped

==== Log checksum DFE24064428FC8D1AC2A6FA1E826F0D8BF75DC6A8DDA8B87C8255EDC1060494A ====

INDEX 01 00:00:00
TRACK 02 AUDIO
TITLE “Which Way Will the Wind Blow”
PERFORMER “Uriah Heep”
INDEX 00 04:37:31
INDEX 01 04:39:13
TRACK 03 AUDIO
TITLE “All God’s Children”
PERFORMER “Uriah Heep”
INDEX 00 09:27:26
INDEX 01 09:29:40
TRACK 04 AUDIO
TITLE “All for One”
PERFORMER “Uriah Heep”
INDEX 00 13:46:25
INDEX 01 13:48:07
TRACK 05 AUDIO
TITLE “Different World”
PERFORMER “Uriah Heep”
INDEX 00 18:11:66
INDEX 01 18:14:05
TRACK 06 AUDIO
TITLE “Step by Step”
PERFORMER “Uriah Heep”
INDEX 00 22:24:70
INDEX 01 22:27:24
TRACK 07 AUDIO
TITLE “Seven Days”
PERFORMER “Uriah Heep”
INDEX 00 26:32:65
INDEX 01 26:34:50
TRACK 08 AUDIO
TITLE “First Touch”
PERFORMER “Uriah Heep”
INDEX 00 30:06:69
INDEX 01 30:09:20
TRACK 09 AUDIO
TITLE “One on One”
PERFORMER “Uriah Heep”
INDEX 00 34:00:34
INDEX 01 34:02:34
TRACK 10 AUDIO
TITLE “Cross That Line”
PERFORMER “Uriah Heep”
INDEX 00 38:03:57
INDEX 01 38:06:09
TRACK 11 AUDIO
TITLE “Stand Back”
PERFORMER “Uriah Heep”
INDEX 00 43:35:64
INDEX 01 43:40:52
TRACK 12 AUDIO
TITLE “Powers of Addiction (out-take)”
PERFORMER “Uriah Heep”
INDEX 00 47:36:67
INDEX 01 47:37:34
TRACK 13 AUDIO
TITLE “Holy Roller (out-take)”
PERFORMER “Uriah Heep”
INDEX 00 51:48:32
INDEX 01 51:49:13
TRACK 14 AUDIO
TITLE “Blood on Stone (extended version)”
PERFORMER “Uriah Heep”
INDEX 00 56:50:65
INDEX 01 56:51:50
TRACK 15 AUDIO
TITLE “Cross That Line (extended version)”
PERFORMER “Uriah Heep”
INDEX 00 63:53:54
INDEX 01 63:54:32


Leave a Reply

Your email address will not be published. Required fields are marked *

This site uses Akismet to reduce spam. Learn how your comment data is processed.