Uriah Heep – Different World (Remastered)




Artist: Uriah Heep
Year: 1991/2000
Genre: Rock
Notes: Discogs
Add. Notes: Remastered
Cover incl.: Yes
Encoder: FLAC
Bitrate: ~1000 kBit/s (44.1 kHz/16 Bit/s)
Log & Cue incl.: Yes
Size: 718,3 MB
Password: “slam” (without ” “)


All Downloads/Hosters are compatible

Download 1
KatFile.com
Turbobit.net
FileFactory.com
Rapidgator.net
Download 2
KatFile.com
Turbobit.net
FileFactory.com
Rapidgator.net

Tracklist:

1 Blood On Stone 
2 Which Way Will The Wind Blow 
3 All God's Children 
4 All For One 
5 Different World 
6 Step By Step 
7 Seven Days 
8 First Touch 
9 One On One 
10 Cross That Line 
Bonus Tracks
11 Stand Back 
12 Blood Red Roses (1990 Re-mix)
13 Hold Your Head Up (Edited Version)
14 Rockarama (Live Alternate Version - From Moscow 
Concerts)

EAC-Log, CUE-Sheed & NFO:

Click to open spoiler
Exact Audio Copy V1.0 beta 2 from 29. April 2011

EAC extraction logfile from 30. December 2011, 16:07

Uriah Heep / Different World

Used drive : Optiarc DVD RW AD-7240S Adapter: 1 ID: 0

Read mode : Secure
Utilize accurate stream : Yes
Defeat audio cache : Yes
Make use of C2 pointers : No

Read offset correction : 48
Overread into Lead-In and Lead-Out : No
Fill up missing offset samples with silence : Yes
Delete leading and trailing silent blocks : No
Null samples used in CRC calculations : Yes
Used interface : Native Win32 interface for Win NT & 2000

Used output format : User Defined Encoder
Selected bitrate : 1024 kBit/s
Quality : High
Add ID3 tag : Yes
Command line compressor : C:\Program Files\Exact Audio Copy\Flac\flac.exe
Additional command line options : -6 -V -T “ARTIST=%artist%” -T “TITLE=%title%” -T “ALBUM=%albumtitle%” -T “DATE=%year%” -T “TRACKNUMBER=%tracknr%” -T “GENRE=%genre%” -T “COMMENT=%comment%” %source% -o %dest%

TOC of the extracted CD

Track | Start | Length | Start sector | End sector
———————————————————
1 | 0:00.00 | 4:38.40 | 0 | 20889
2 | 4:38.40 | 4:50.07 | 20890 | 42646
3 | 9:28.47 | 4:18.55 | 42647 | 62051
4 | 13:47.27 | 4:25.63 | 62052 | 81989
5 | 18:13.15 | 4:13.20 | 81990 | 100984
6 | 22:26.35 | 4:07.20 | 100985 | 119529
7 | 26:33.55 | 3:34.57 | 119530 | 135636
8 | 30:08.37 | 3:53.20 | 135637 | 153131
9 | 34:01.57 | 4:03.28 | 153132 | 171384
10 | 38:05.10 | 5:34.60 | 171385 | 196494
11 | 43:39.70 | 3:59.25 | 196495 | 214444
12 | 47:39.20 | 3:52.22 | 214445 | 231866
13 | 51:31.42 | 4:21.40 | 231867 | 251481
14 | 55:53.07 | 10:03.25 | 251482 | 296731

Range status and errors

Selected range

Filename E:\music\Uriah Heep\Studio\1991. Different World\1991. Different World (Castle CMACD 558, USA)\Uriah Heep – Different World.wav

Peak level 97.9 %
Extraction speed 4.3 X
Range quality 99.9 %
Test CRC CFF48059
Copy CRC CFF48059
Copy OK

No errors occurred

AccurateRip summary

Track 1 cannot be verified as accurate (confidence 2) [294BAEA7], AccurateRip returned [B5510C6D] (AR v2)
Track 2 cannot be verified as accurate (confidence 2) [038933DF], AccurateRip returned [31C018B7] (AR v2)
Track 3 cannot be verified as accurate (confidence 2) [90BE4FB0], AccurateRip returned [672AD7BF] (AR v2)
Track 4 cannot be verified as accurate (confidence 2) [BC612E36], AccurateRip returned [2EFBD3AA] (AR v2)
Track 5 cannot be verified as accurate (confidence 2) [C8092BF7], AccurateRip returned [A7693A3F] (AR v2)
Track 6 cannot be verified as accurate (confidence 2) [DFF63D89], AccurateRip returned [30153385] (AR v2)
Track 7 cannot be verified as accurate (confidence 2) [17BFDDC0], AccurateRip returned [5E659962] (AR v2)
Track 8 cannot be verified as accurate (confidence 2) [70575922], AccurateRip returned [3235DC52] (AR v2)
Track 9 cannot be verified as accurate (confidence 2) [7BFD36D1], AccurateRip returned [F39CE916] (AR v2)
Track 10 cannot be verified as accurate (confidence 2) [2817BF20], AccurateRip returned [9FA5094F] (AR v2)
Track 11 cannot be verified as accurate (confidence 2) [C1060765], AccurateRip returned [16BEBFD0] (AR v2)
Track 12 cannot be verified as accurate (confidence 2) [E4706080], AccurateRip returned [757C5154] (AR v2)
Track 13 cannot be verified as accurate (confidence 2) [F64B9423], AccurateRip returned [944F83B4] (AR v2)
Track 14 cannot be verified as accurate (confidence 2) [A00318C9], AccurateRip returned [6AB5B995] (AR v2)

No tracks could be verified as accurate
You may have a different pressing from the one(s) in the database

End of status report

==== Log checksum 7D6048CF1676C30A83DBE404480734D9F623A8037ABD50AF9E8200FBACBC79EE ====

REM GENRE Rock
REM DATE 1991
REM DISCID BF0F740E
REM COMMENT “ExactAudioCopy v1.0b2”
PERFORMER “Uriah Heep”
TITLE “Different World”
FILE “Uriah Heep – Different World.flac” WAVE
TRACK 01 AUDIO
TITLE “Blood On Stone”
PERFORMER “Uriah Heep”
INDEX 01 00:00:00
TRACK 02 AUDIO
TITLE “Which Way Will The Wind Blow”
PERFORMER “Uriah Heep”
INDEX 00 04:36:50
INDEX 01 04:38:40
TRACK 03 AUDIO
TITLE “All God’s Children”
PERFORMER “Uriah Heep”
INDEX 00 09:26:57
INDEX 01 09:28:47
TRACK 04 AUDIO
TITLE “All For One”
PERFORMER “Uriah Heep”
INDEX 00 13:45:37
INDEX 01 13:47:27
TRACK 05 AUDIO
TITLE “Different World”
PERFORMER “Uriah Heep”
INDEX 00 18:11:25
INDEX 01 18:13:15
TRACK 06 AUDIO
TITLE “Step By Step”
PERFORMER “Uriah Heep”
INDEX 00 22:24:45
INDEX 01 22:26:35
TRACK 07 AUDIO
TITLE “Seven Days”
PERFORMER “Uriah Heep”
INDEX 00 26:31:65
INDEX 01 26:33:55
TRACK 08 AUDIO
TITLE “First Touch”
PERFORMER “Uriah Heep”
INDEX 00 30:06:47
INDEX 01 30:08:37
TRACK 09 AUDIO
TITLE “One By One”
PERFORMER “Uriah Heep”
INDEX 00 33:59:67
INDEX 01 34:01:57
TRACK 10 AUDIO
TITLE “Cross That Line”
PERFORMER “Uriah Heep”
INDEX 00 38:03:20
INDEX 01 38:05:10
TRACK 11 AUDIO
TITLE “Stand Back”
PERFORMER “Uriah Heep”
INDEX 00 43:35:05
INDEX 01 43:39:70
TRACK 12 AUDIO
TITLE “Blood Red Roses”
PERFORMER “Uriah Heep”
INDEX 00 47:37:30
INDEX 01 47:39:20
TRACK 13 AUDIO
TITLE “Hold Your Head Up”
PERFORMER “Uriah Heep”
INDEX 00 51:29:52
INDEX 01 51:31:42
TRACK 14 AUDIO
TITLE “Rockarama”
PERFORMER “Uriah Heep”
INDEX 00 55:51:17
INDEX 01 55:53:07


Leave a Reply

Your email address will not be published. Required fields are marked *

Enter the text from the image below
 

This site uses Akismet to reduce spam. Learn how your comment data is processed.