Uriah Heep – Different World (Japanese Edition)




Artist: Uriah Heep
Year: 1991
Genre: Rock
Notes: Discogs
Add. Notes: Japanese Edition
Cover incl.: Yes
Encoder: FLAC
Bitrate: ~900 kBit/s (44.1 kHz/16 Bit/s)
Log & Cue incl.: Yes
Size: 355,82 MB
Password: “slam” (without ” “)


All Downloads/Hosters are compatible

Download 1
Turbobit.net
KatFile.com
Rapidgator.net
Download 2
Turbobit.net
KatFile.com
Rapidgator.net

Tracklist:

1. Blood On Stone
2. Which Way Will The Wind Blow
3. All God's Children
4. All For One
5. Different World
6. Step By Step
7. Seven Days
8. First Touch
9. One On One
10. Cross That Line
11. Stand Back

EAC-Log, CUE-Sheed & NFO:

Click to open spoiler
Exact Audio Copy V0.99 prebeta 5 from 4. May 2009

Отчёт EAC об извлечении, выполненном 18. марта 2012, 21:22

Uriah Heep / Different World

Дисковод: ASUS SDRW-08D2S-U Adapter: 2 ID: 0

Режим чтения : Достоверность
Использование точного потока : Да
Отключение кэша аудио : Да
Использование указателей C2 : Нет

Коррекция смещения при чтении : 103
Способность читать области Lead-in и Lead-out : Нет
Заполнение пропущенных сэмплов тишиной : Да
Удаление блоков с тишиной в начале и конце : Нет
При вычислениях CRC использовались нулевые сэмплы : Да
Интерфейс : Встроенный Win32-интерфейс для Win NT/2000

Выходной формат : Пользовательский кодировщик
Выбранный битрейт : 768 kBit/s
Качество : Высокий
Добавление ID3-тэга : Нет
Утилита сжатия : C:\Program Files\Exact Audio Copy\FLAC\FLAC.EXE
Дополнительные параметры : -8 -V %s

TOC извлечённого CD

Трек | Старт | Длительность | Начальный сектор | Конечный сектор
———————————————————————
1 | 0:00.00 | 4:38.18 | 0 | 20867
2 | 4:38.18 | 4:52.27 | 20868 | 42794
3 | 9:30.45 | 4:19.20 | 42795 | 62239
4 | 13:49.65 | 4:27.23 | 62240 | 82287
5 | 18:17.13 | 4:09.12 | 82288 | 100974
6 | 22:26.25 | 4:06.08 | 100975 | 119432
7 | 26:32.33 | 3:34.62 | 119433 | 135544
8 | 30:07.20 | 3:53.55 | 135545 | 153074
9 | 34:01.00 | 4:06.60 | 153075 | 171584
10 | 38:07.60 | 5:28.33 | 171585 | 196217
11 | 43:36.18 | 3:54.57 | 196218 | 213824

Характеристики диапазона извлечения и сообщения об ошибках

Выбранный диапазон

Имя файла D:\uTorrent.compl\Uriah Heep – Studio Albums 1970 – 1977 ( Japan 1st & 2nd Press Rare )\Different World 1991 ( ( 1991, Japan 1st Press, Teichiku TECP-25815 )\Uriah Heep – Different World.wav

Пиковый уровень 100.0 %
Качество диапазона 100.0 %
CRC теста 83377A0A
CRC копии 83377A0A
Копирование… OK

Ошибок не произошло

AccurateRip: сводка

Трек 1 нет в базе данных
Трек 2 нет в базе данных
Трек 3 нет в базе данных
Трек 4 нет в базе данных
Трек 5 нет в базе данных
Трек 6 нет в базе данных
Трек 7 нет в базе данных
Трек 8 нет в базе данных
Трек 9 нет в базе данных
Трек 10 нет в базе данных
Трек 11 нет в базе данных

Ни одного трека нет в базе AccurateRip

Конец отчёта

REM GENRE Rock
REM DATE 1991
REM DISCID 9D0B230B
REM COMMENT “ExactAudioCopy v0.99pb5”
PERFORMER “Uriah Heep”
TITLE “Different World”
FILE “Uriah Heep – Different World.flac” WAVE
TRACK 01 AUDIO
TITLE “Blood On Stone”
PERFORMER “Uriah Heep”
INDEX 01 00:00:00
TRACK 02 AUDIO
TITLE “Which Way Will The Wind Blow”
PERFORMER “Uriah Heep”
INDEX 01 04:38:18
TRACK 03 AUDIO
TITLE “All God’s Children”
PERFORMER “Uriah Heep”
INDEX 00 09:28:15
INDEX 01 09:30:45
TRACK 04 AUDIO
TITLE “All For One”
PERFORMER “Uriah Heep”
INDEX 00 13:48:45
INDEX 01 13:49:65
TRACK 05 AUDIO
TITLE “Different World”
PERFORMER “Uriah Heep”
INDEX 00 18:15:28
INDEX 01 18:17:13
TRACK 06 AUDIO
TITLE “Step By Step”
PERFORMER “Uriah Heep”
INDEX 01 22:26:25
TRACK 07 AUDIO
TITLE “Seven Days”
PERFORMER “Uriah Heep”
INDEX 01 26:32:33
TRACK 08 AUDIO
TITLE “First Touch”
PERFORMER “Uriah Heep”
INDEX 00 30:04:68
INDEX 01 30:07:20
TRACK 09 AUDIO
TITLE “One On One”
PERFORMER “Uriah Heep”
INDEX 00 33:59:10
INDEX 01 34:01:00
TRACK 10 AUDIO
TITLE “Cross That Line”
PERFORMER “Uriah Heep”
INDEX 00 38:03:03
INDEX 01 38:07:60
TRACK 11 AUDIO
TITLE “Stand Back”
PERFORMER “Uriah Heep”
INDEX 01 43:36:18


Leave a Reply

Your email address will not be published. Required fields are marked *

This site uses Akismet to reduce spam. Learn how your comment data is processed.