Uriah Heep – Demons And Wizards




No Cover available

Release: Uriah_Heep_-_1972_Demons_And_Wizards_Bronze_Rec_260_137_Germany
Artist: Uriah Heep
Year: 1972/1987
Genre: Rock
Notes: Discogs
Add. Notes:
Watch Songs on: YouTube
Cover incl.: Yes
Encoder: FLAC
Bitrate: ~800 kBit/s (44.1 kHz/16 Bit/s)
Log & Cue incl.: Yes/Yes
Size: 279,3 MB
Password: “slam” (without ” “)


All Downloads/Hosters are compatible

Download 1
KatFile.com
Turbobit.net
Rapidgator.net
FileFactory.com
Download 2
KatFile.com
Turbobit.net
Rapidgator.net
FileFactory.com

Tracklist:

1 Wizard 
2 Traveller In Time 
3 Easy Livin' 
4 Poet's Justice 
5 Circle Of Hands 
6 Rainbow Demon 
7 All My Life 
8 a)Paradise 
9 b)The Spell

EAC-Log, CUE-Sheed & NFO:

Click to open spoiler
Exact Audio Copy V1.0 beta 3 from 29. August 2011

EAC extraction logfile from 5. July 2013, 20:12

Uriah Heep / Demons And Wizards (260 137)

Used drive : SONY BD RW BDX-S600U Adapter: 2 ID: 0

Read mode : Secure
Utilize accurate stream : Yes
Defeat audio cache : Yes
Make use of C2 pointers : No

Read offset correction : 48
Overread into Lead-In and Lead-Out : No
Fill up missing offset samples with silence : Yes
Delete leading and trailing silent blocks : No
Null samples used in CRC calculations : Yes
Used interface : Native Win32 interface for Win NT & 2000

Used output format : User Defined Encoder
Selected bitrate : 128 kBit/s
Quality : High
Add ID3 tag : No
Command line compressor : C:\Program Files\Exact Audio Copy\Flac\flac.exe
Additional command line options : -V -8 -T “Date=%year%” -T “Genre=%genre%” %source%

TOC of the extracted CD

Track | Start | Length | Start sector | End sector
———————————————————
1 | 0:00.33 | 3:03.30 | 33 | 13787
2 | 3:03.63 | 3:26.12 | 13788 | 29249
3 | 6:30.00 | 2:38.60 | 29250 | 41159
4 | 9:08.60 | 4:17.55 | 41160 | 60489
5 | 13:26.40 | 6:30.25 | 60490 | 89764
6 | 19:56.65 | 4:28.53 | 89765 | 109917
7 | 24:25.43 | 2:47.67 | 109918 | 122509
8 | 27:13.35 | 5:07.48 | 122510 | 145582
9 | 32:21.08 | 7:35.35 | 145583 | 179742

Range status and errors

Selected range

Filename H:\ALIK\Uriah Heep – Discography\Studio\1972. Demons And Wizards\1972. Demons And Wizards (Bronze Rec. 260 137,Germany)\Uriah Heep – Demons And Wizards (260 137).wav

Peak level 91.9 %
Extraction speed 13.6 X
Range quality 100.0 %
Test CRC 09345C2E
Copy CRC 09345C2E
Copy OK

No errors occurred

AccurateRip summary

Track 1 accurately ripped (confidence 2) [8B3BC34B] (AR v2)
Track 2 accurately ripped (confidence 3) [4F04AEB7] (AR v2)
Track 3 accurately ripped (confidence 3) [35F5021F] (AR v2)
Track 4 accurately ripped (confidence 2) [E6ED1927] (AR v2)
Track 5 accurately ripped (confidence 3) [6604CA34] (AR v2)
Track 6 accurately ripped (confidence 3) [732F3222] (AR v2)
Track 7 accurately ripped (confidence 3) [C3FC0A39] (AR v2)
Track 8 accurately ripped (confidence 2) [8523A482] (AR v2)
Track 9 accurately ripped (confidence 2) [7E302493] (AR v2)

All tracks accurately ripped

End of status report

—- CUETools DB Plugin V2.1.3

[CTDB TOCID: NCEadRZVfBKxwrAXO0K3ZpkO7_w-] found, Submit result: discs with pregaps not supported in this protocol version
[15e49bde] (14/14) Differs in 0 samples @
You can use CUETools to repair this rip.

==== Log checksum D2AFE126A11CB1B912360437B666DDF7473BAD5D63B57DE6EAAF4EBA374D9FA4 ====

REM GENRE “Hard Rock”
REM DATE 1972
REM DISCID 7D095C09
REM COMMENT “ExactAudioCopy v1.0b3”
CATALOG 0000000000000
PERFORMER “Uriah Heep”
TITLE “Demons And Wizards (260 137)”
FILE “Uriah Heep – Demons And Wizards (260 137).flac” WAVE
TRACK 01 AUDIO
TITLE “Wizard”
PERFORMER “Uriah Heep”
INDEX 00 00:00:00
INDEX 01 00:00:33
TRACK 02 AUDIO
TITLE “Traveller In Time”
PERFORMER “Uriah Heep”
INDEX 00 03:01:53
INDEX 01 03:03:63
TRACK 03 AUDIO
TITLE “Easy Livin'”
PERFORMER “Uriah Heep”
INDEX 00 06:27:65
INDEX 01 06:30:00
TRACK 04 AUDIO
TITLE “Poet’s Justice”
PERFORMER “Uriah Heep”
INDEX 00 09:06:55
INDEX 01 09:08:60
TRACK 05 AUDIO
TITLE “Circle Of Hands”
PERFORMER “Uriah Heep”
INDEX 00 13:24:35
INDEX 01 13:26:40
TRACK 06 AUDIO
TITLE “Rainbow Demon”
PERFORMER “Uriah Heep”
INDEX 00 19:54:68
INDEX 01 19:56:65
TRACK 07 AUDIO
TITLE “All My Life”
PERFORMER “Uriah Heep”
INDEX 00 24:23:35
INDEX 01 24:25:43
TRACK 08 AUDIO
TITLE “Paradise (A)”
PERFORMER “Uriah Heep”
INDEX 00 27:11:25
INDEX 01 27:13:35
TRACK 09 AUDIO
TITLE “The Spell (B)”
PERFORMER “Uriah Heep”
INDEX 01 32:21:08


0

Publication author

offline 7 days

Chaos

3
Comments: 4Publics: 3565Registration: 02-02-2019
Spread the Download

Leave a Reply

Your email address will not be published. Required fields are marked *

Enter the text from the image below
 

This site uses Akismet to reduce spam. Learn how your comment data is processed.