Uriah Heep – Demons And Wizards (Reissue)




Artist: Uriah Heep
Year: 1972/1987
Genre: Rock
Notes: Discogs
Add. Notes: Reissue
Cover incl.: Yes
Encoder: FLAC
Bitrate: ~900 kBit/s (44.1 kHz/16 Bit/s)
Log & Cue incl.: Yes
Size: 380,5 MB
Password: “slam” (without ” “)


All Downloads/Hosters are compatible

Download 1
KatFile.com
Turbobit.net
Rapidgator.net
Usersdrive.com
Download 2
KatFile.com
Turbobit.net
Rapidgator.net
Usersdrive.com

Tracklist:

1 - The Wizard - 2:56
2 - Traveller In Time - 3:14
3 - Easy Livin' - 2:34
4 - Poet's Justice - 4:11
5 - Circle Of Hands - 6:18
6 - Rainbow Demon - 4:19
7 - All My Life - 2:42
8 - Paradise - 5:11
9 - The Spell - 7:21

EAC-Log, CUE-Sheed & NFO:

Click to open spoiler
Exact Audio Copy V0.99 prebeta 5 from 4. May 2009

Отчёт EAC об извлечении, выполненном 14. апреля 2010, 12:00

Uriah Heep / Demons and Wizards

Дисковод: Optiarc DVD RW AD-7240S Adapter: 1 ID: 0

Режим чтения : Достоверность
Использование точного потока : Да
Отключение кэша аудио : Да
Использование указателей C2 : Нет

Коррекция смещения при чтении : 48
Способность читать области Lead-in и Lead-out : Нет
Заполнение пропущенных сэмплов тишиной : Да
Удаление блоков с тишиной в начале и конце : Нет
При вычислениях CRC использовались нулевые сэмплы : Да
Интерфейс : Встроенный Win32-интерфейс для Win NT/2000

Выходной формат : Пользовательский кодировщик
Выбранный битрейт : 768 kBit/s
Качество : Высокий
Добавление ID3-тэга : Нет
Утилита сжатия : C:\Program Files\Exact Audio Copy\FLAC\FLAC.EXE
Дополнительные параметры : -6 -V -T “ARTIST=%a” -T “TITLE=%t” -T “ALBUM=%g” -T “DATE=%y” -T “TRACKNUMBER=%n” -T “GENRE=%m” -T “COMMENT=%e” %s -o %d

TOC извлечённого CD

Трек | Старт | Длительность | Начальный сектор | Конечный сектор
———————————————————————
1 | 0:00.33 | 2:58.50 | 33 | 13432
2 | 2:59.08 | 3:17.10 | 13433 | 28217
3 | 6:16.18 | 2:36.55 | 28218 | 39972
4 | 8:52.73 | 4:13.37 | 39973 | 58984
5 | 13:06.35 | 6:20.25 | 58985 | 87509
6 | 19:26.60 | 4:22.13 | 87510 | 107172
7 | 23:48.73 | 2:44.35 | 107173 | 119507
8 | 26:33.33 | 5:11.25 | 119508 | 142857
9 | 31:44.58 | 7:21.72 | 142858 | 176004

Характеристики диапазона извлечения и сообщения об ошибках

Выбранный диапазон

Имя файла E:\music\Музон\Uriah Heep\Demons&Wizards\Uriah Heep – Demons and Wizards.wav

Пиковый уровень 100.0 %
Качество диапазона 100.0 %
CRC теста 34D6EE86
CRC копии 34D6EE86
Копирование… OK

Ошибок не произошло

AccurateRip: сводка

Трек 1 точное извлечение (доверие 9) [9967513A]
Трек 2 точное извлечение (доверие 9) [F9B79144]
Трек 3 точное извлечение (доверие 9) [529C4D17]
Трек 4 точное извлечение (доверие 9) [04ED24FD]
Трек 5 точное извлечение (доверие 9) [0D31BA5A]
Трек 6 точное извлечение (доверие 9) [25628CFE]
Трек 7 точное извлечение (доверие 9) [36490E1D]
Трек 8 точное извлечение (доверие 9) [3D77C0B8]
Трек 9 точное извлечение (доверие 8) [302A087F]

Все треки извлечены точно

Конец отчёта

REM GENRE Rock
REM DATE 1972
REM DISCID 7D092A09
REM COMMENT “ExactAudioCopy v0.99pb5”
PERFORMER “Uriah Heep”
TITLE “Demons and Wizards”
FILE “Uriah Heep – Demons and Wizards.flac” WAVE
TRACK 01 AUDIO
TITLE “The Wizard”
PERFORMER “Uriah Heep”
INDEX 00 00:00:00
INDEX 01 00:00:33
TRACK 02 AUDIO
TITLE “Traveller in Time”
PERFORMER “Uriah Heep”
INDEX 00 02:57:05
INDEX 01 02:59:08
TRACK 03 AUDIO
TITLE “Easy Livin'”
PERFORMER “Uriah Heep”
INDEX 00 06:14:00
INDEX 01 06:16:18
TRACK 04 AUDIO
TITLE “Poet’s Justice”
PERFORMER “Uriah Heep”
INDEX 00 08:50:63
INDEX 01 08:52:73
TRACK 05 AUDIO
TITLE “Circle of Hands”
PERFORMER “Uriah Heep”
INDEX 00 13:04:50
INDEX 01 13:06:35
TRACK 06 AUDIO
TITLE “Rainbow Demon”
PERFORMER “Uriah Heep”
INDEX 00 19:25:13
INDEX 01 19:26:60
TRACK 07 AUDIO
TITLE “All My Life”
PERFORMER “Uriah Heep”
INDEX 00 23:46:45
INDEX 01 23:48:73
TRACK 08 AUDIO
TITLE “Paradise”
PERFORMER “Uriah Heep”
INDEX 00 26:31:63
INDEX 01 26:33:33
TRACK 09 AUDIO
TITLE “The Spell”
PERFORMER “Uriah Heep”
INDEX 00 31:44:55
INDEX 01 31:44:58


Leave a Reply

Your email address will not be published. Required fields are marked *

This site uses Akismet to reduce spam. Learn how your comment data is processed.