Uriah Heep – Demons And Wizards (Limited Remastered Edition)




Artist: Uriah Heep
Year: 1972/1996
Genre: Rock
Notes: Discogs
Add. Notes: Limited Remastered Edition
Cover incl.: Yes
Encoder: FLAC
Bitrate: ~900 kBit/s (44.1 kHz/16 Bit/s)
Log & Cue incl.: Yes
Size: 712,14 MB
Password: “slam” (without ” “)


All Downloads/Hosters are compatible

Download 1
Turbobit.net
Rapidgator.net
KatFile.com
UploadRar.com
Download 2
Turbobit.net
Rapidgator.net
KatFile.com
UploadRar.com

Tracklist:

1 - The Wizard 
2 - Traveller In Time 
3 - Easy Livin' 
4 - Poet's Justice  
5 - Circle Of Hands  
6 - Rainbow Demon 
7 - All My Life 
8 - Paradise 
9 - The Spell 
Bonus Tracks
10 - Why (Single Version) -
11 - Why (Extended Version, Previously Unreleased) 
12 - Home Again To You (Previously Unreleased)

EAC-Log, CUE-Sheed & NFO:

Click to open spoiler
Exact Audio Copy V0.99 prebeta 5 from 4. May 2009

Отчёт EAC об извлечении, выполненном 17. апреля 2011, 20:59

Uriah Heep / Demons And Wizards

Дисковод: Optiarc DVD RW AD-7240S Adapter: 1 ID: 0

Режим чтения : Достоверность
Использование точного потока : Да
Отключение кэша аудио : Да
Использование указателей C2 : Нет

Коррекция смещения при чтении : 48
Способность читать области Lead-in и Lead-out : Нет
Заполнение пропущенных сэмплов тишиной : Да
Удаление блоков с тишиной в начале и конце : Нет
При вычислениях CRC использовались нулевые сэмплы : Да
Интерфейс : Встроенный Win32-интерфейс для Win NT/2000

Выходной формат : Пользовательский кодировщик
Выбранный битрейт : 768 kBit/s
Качество : Высокий
Добавление ID3-тэга : Нет
Утилита сжатия : C:\Program Files\Exact Audio Copy\FLAC\FLAC.EXE
Дополнительные параметры : -6 -V -T “ARTIST=%a” -T “TITLE=%t” -T “ALBUM=%g” -T “DATE=%y” -T “TRACKNUMBER=%n” -T “GENRE=%m” -T “COMMENT=%e” %s -o %d

TOC извлечённого CD

Трек | Старт | Длительность | Начальный сектор | Конечный сектор
———————————————————————
1 | 0:00.00 | 2:59.42 | 0 | 13466
2 | 2:59.42 | 3:25.28 | 13467 | 28869
3 | 6:24.70 | 2:37.37 | 28870 | 40681
4 | 9:02.32 | 4:15.50 | 40682 | 59856
5 | 13:18.07 | 6:25.53 | 59857 | 88784
6 | 19:43.60 | 4:25.05 | 88785 | 108664
7 | 24:08.65 | 2:44.10 | 108665 | 120974
8 | 26:53.00 | 5:10.52 | 120975 | 144276
9 | 32:03.52 | 7:32.03 | 144277 | 178179
10 | 39:35.55 | 4:53.05 | 178180 | 200159
11 | 44:28.60 | 7:39.32 | 200160 | 234616
12 | 52:08.17 | 5:28.65 | 234617 | 259281

Характеристики диапазона извлечения и сообщения об ошибках

Выбранный диапазон

Имя файла E:\music\Uriah Heep\1972. Demons And Wizards\1972. Demons And Wizards (Castle ESMCD 319, England)\Uriah Heep – Demons And Wizards.wav

Пиковый уровень 100.0 %
Качество диапазона 100.0 %
CRC теста DCE703F4
CRC копии DCE703F4
Копирование… OK

Ошибок не произошло

AccurateRip: сводка

Трек 1 точное извлечение (доверие 4) [DE36F96F]
Трек 2 точное извлечение (доверие 3) [C3F9FDFA]
Трек 3 точное извлечение (доверие 4) [2115D14E]
Трек 4 точное извлечение (доверие 3) [027CDA42]
Трек 5 точное извлечение (доверие 3) [C754F5C7]
Трек 6 точное извлечение (доверие 3) [3A5341E4]
Трек 7 точное извлечение (доверие 3) [0D1CF67A]
Трек 8 точное извлечение (доверие 3) [319DC77B]
Трек 9 точное извлечение (доверие 3) [3363CF09]
Трек 10 точное извлечение (доверие 4) [726EFF4C]
Трек 11 точное извлечение (доверие 3) [32B2EB78]
Трек 12 точное извлечение (доверие 3) [A0F4DCDB]

Все треки извлечены точно

Конец отчёта

REM GENRE “Hard Rock”
REM DATE 1972
REM DISCID 920D810C
REM COMMENT “ExactAudioCopy v0.99pb5”
PERFORMER “Uriah Heep”
TITLE “Demons And Wizards”
FILE “Uriah Heep – Demons And Wizards.flac” WAVE
TRACK 01 AUDIO
TITLE “The Wizard”
PERFORMER “Uriah Heep”
INDEX 01 00:00:00
TRACK 02 AUDIO
TITLE “Traveller In Time”
PERFORMER “Uriah Heep”
INDEX 00 02:58:20
INDEX 01 02:59:42
TRACK 03 AUDIO
TITLE “Easy Livin'”
PERFORMER “Uriah Heep”
INDEX 01 06:24:70
TRACK 04 AUDIO
TITLE “Poet’s Justice”
PERFORMER “Uriah Heep”
INDEX 00 09:00:02
INDEX 01 09:02:32
TRACK 05 AUDIO
TITLE “Circle Of Hands”
PERFORMER “Uriah Heep”
INDEX 00 13:16:35
INDEX 01 13:18:07
TRACK 06 AUDIO
TITLE “Rainbow Demon”
PERFORMER “Uriah Heep”
INDEX 00 19:42:07
INDEX 01 19:43:60
TRACK 07 AUDIO
TITLE “All My Life”
PERFORMER “Uriah Heep”
INDEX 01 24:08:65
TRACK 08 AUDIO
TITLE “Paradise”
PERFORMER “Uriah Heep”
INDEX 00 26:51:07
INDEX 01 26:53:00
TRACK 09 AUDIO
TITLE “The Spell”
PERFORMER “Uriah Heep”
INDEX 01 32:03:52
TRACK 10 AUDIO
TITLE “Why (single version) [bonus]”
PERFORMER “Uriah Heep”
INDEX 00 39:32:27
INDEX 01 39:35:55
TRACK 11 AUDIO
TITLE “Why (extended version) [bonus]”
PERFORMER “Uriah Heep”
INDEX 01 44:28:60
TRACK 12 AUDIO
TITLE “Home Again To You [bonus]”
PERFORMER “Uriah Heep”
INDEX 00 52:05:67
INDEX 01 52:08:17


Leave a Reply

Your email address will not be published. Required fields are marked *

This site uses Akismet to reduce spam. Learn how your comment data is processed.