Uriah Heep – Demons And Wizards (Japanese Edition)




[Total: 0    Average: 0/5]

Artist: Uriah Heep
Year: 1972/1986
Genre: Rock
Notes: Discogs
Add. Notes: Japanese Edition
Cover incl.: Yes
Encoder: FLAC
Bitrate: ~800 kBit/s (44.1 kHz/16 Bit/s)
Log & Cue incl.: Yes
Size: 259,83 MB
Password: “slam” (without ” “)


All Downloads/Hosters are compatible

Download 1
Share-online.biz
KatFile.com
Rapidgator.net
Download 2
Share-online.biz
KatFile.com
Rapidgator.net

Tracklist:

1. The Wizard 	
2. Traveller In Time 	
3. Easy Livin' 	
4. Poet's Justice 	
5. Circle Of Hands 	
6. Rainbow Demon 	
7. All My Life 	
8. Paradise 	
9. The Spell

EAC-Log, CUE-Sheed & NFO:

Click to open spoiler
Exact Audio Copy V0.99 prebeta 5 from 4. May 2009

Отчёт EAC об извлечении, выполненном 7. декабря 2010, 23:59

Uriah Heep / Demons And Wizards

Дисковод: HL-DT-STDVDRAM GSA-T20N Adapter: 1 ID: 0

Режим чтения : Достоверность
Использование точного потока : Да
Отключение кэша аудио : Да
Использование указателей C2 : Нет

Коррекция смещения при чтении : 667
Способность читать области Lead-in и Lead-out : Нет
Заполнение пропущенных сэмплов тишиной : Да
Удаление блоков с тишиной в начале и конце : Нет
При вычислениях CRC использовались нулевые сэмплы : Да
Интерфейс : Встроенный Win32-интерфейс для Win NT/2000

Выходной формат : Пользовательский кодировщик
Выбранный битрейт : 768 kBit/s
Качество : Высокий
Добавление ID3-тэга : Нет
Утилита сжатия : C:\Program Files\Exact Audio Copy\FLAC\FLAC.EXE
Дополнительные параметры : -8 -V %s

TOC извлечённого CD

Трек | Старт | Длительность | Начальный сектор | Конечный сектор
———————————————————————
1 | 0:00.37 | 3:02.48 | 37 | 13734
2 | 3:03.10 | 3:26.72 | 13735 | 29256
3 | 6:30.07 | 2:37.60 | 29257 | 41091
4 | 9:07.67 | 4:17.45 | 41092 | 60411
5 | 13:25.37 | 6:31.40 | 60412 | 89776
6 | 19:57.02 | 4:27.05 | 89777 | 109806
7 | 24:24.07 | 2:46.63 | 109807 | 122319
8 | 27:10.70 | 5:04.47 | 122320 | 145166
9 | 32:15.42 | 7:43.45 | 145167 | 179936

Характеристики диапазона извлечения и сообщения об ошибках

Выбранный диапазон

Имя файла D:\uTorrent.compl\Uriah Heep – ‘Look At Yourself’ 1971 & ‘Demons And Wizads’ 1972 ( Japan 1st Press )\’Demons And Wizads’ 1972 ( Victor VDP-1149 )\Uriah Heep – Demons And Wizards.wav

Пиковый уровень 88.9 %
Качество диапазона 99.9 %
CRC теста D47216F8
CRC копии D47216F8
Копирование… OK

Ошибок не произошло

AccurateRip: сводка

Трек 1 нет в базе данных
Трек 2 нет в базе данных
Трек 3 нет в базе данных
Трек 4 нет в базе данных
Трек 5 нет в базе данных
Трек 6 нет в базе данных
Трек 7 нет в базе данных
Трек 8 нет в базе данных
Трек 9 нет в базе данных

Ни одного трека нет в базе AccurateRip

Конец отчёта

REM GENRE “Hard Rock”
REM DATE 1972
REM DISCID 84095F09
REM COMMENT “ExactAudioCopy v0.99pb5”
PERFORMER “Uriah Heep”
TITLE “Demons And Wizards”
FILE “Uriah Heep – Demons And Wizards.flac” WAVE
TRACK 01 AUDIO
TITLE “The Wizard”
PERFORMER “Uriah Heep”
INDEX 00 00:00:00
INDEX 01 00:00:37
TRACK 02 AUDIO
TITLE “Traveller In Time”
PERFORMER “Uriah Heep”
INDEX 00 03:01:35
INDEX 01 03:03:10
TRACK 03 AUDIO
TITLE “Easy Livin'”
PERFORMER “Uriah Heep”
INDEX 00 06:28:22
INDEX 01 06:30:07
TRACK 04 AUDIO
TITLE “Poet’s Justice”
PERFORMER “Uriah Heep”
INDEX 00 09:05:65
INDEX 01 09:07:67
TRACK 05 AUDIO
TITLE “Circle Of Hands”
PERFORMER “Uriah Heep”
INDEX 00 13:22:74
INDEX 01 13:25:37
TRACK 06 AUDIO
TITLE “Rainbow Demon”
PERFORMER “Uriah Heep”
INDEX 00 19:55:02
INDEX 01 19:57:02
TRACK 07 AUDIO
TITLE “All My Life”
PERFORMER “Uriah Heep”
INDEX 00 24:22:67
INDEX 01 24:24:07
TRACK 08 AUDIO
TITLE “Paradise”
PERFORMER “Uriah Heep”
INDEX 00 27:09:52
INDEX 01 27:10:70
TRACK 09 AUDIO
TITLE “The Spell”
PERFORMER “Uriah Heep”
INDEX 01 32:15:42


Spread the Download

Leave a Reply

Your email address will not be published. Required fields are marked *

Enter the text from the image below
 

This site uses Akismet to reduce spam. Learn how your comment data is processed.