Uriah Heep – Demons And Wizards (Japanese Edition)




Artist: Uriah Heep
Year: 1972/1989
Genre: Rock
Notes: Discogs
Add. Notes: Japanese Edition
Cover incl.: Yes
Encoder: FLAC
Bitrate: ~900 kBit/s (44.1 kHz/16 Bit/s)
Log & Cue incl.: Yes
Size: 286 MB
Password: “slam” (without ” “)


All Downloads/Hosters are compatible

Download 1
KatFile.com
Rapidgator.net
FileFactory.com
Turbobit.net
Download 2
KatFile.com
Rapidgator.net
FileFactory.com
Turbobit.net

Tracklist:

1 - The Wizard - 3:03
2 - Traveller In Time - 3:27
3 - Easy Livin' - 2:38
4 - Poet's Justice - 4:17
5 - Circle Of Hands - 6:30
6 - Rainbow Demon - 4:28
7 - All My Life - 2:47
8 - Paradise - 5:07
9 - The Spell - 7:34

EAC-Log, CUE-Sheed & NFO:

Click to open spoiler
Exact Audio Copy V0.99 prebeta 5 from 4. May 2009

Отчёт EAC об извлечении, выполненном 28. ноября 2011, 21:13

Uriah Heep / Demons And Wizards

Дисковод: ASUS SDRW-08D2S-U Adapter: 2 ID: 0

Режим чтения : Достоверность
Использование точного потока : Да
Отключение кэша аудио : Да
Использование указателей C2 : Нет

Коррекция смещения при чтении : 103
Способность читать области Lead-in и Lead-out : Нет
Заполнение пропущенных сэмплов тишиной : Да
Удаление блоков с тишиной в начале и конце : Нет
При вычислениях CRC использовались нулевые сэмплы : Да
Интерфейс : Встроенный Win32-интерфейс для Win NT/2000

Выходной формат : Пользовательский кодировщик
Выбранный битрейт : 768 kBit/s
Качество : Высокий
Добавление ID3-тэга : Нет
Утилита сжатия : C:\Program Files\Exact Audio Copy\FLAC\FLAC.EXE
Дополнительные параметры : -8 -V %s

TOC извлечённого CD

Трек | Старт | Длительность | Начальный сектор | Конечный сектор
———————————————————————
1 | 0:00.00 | 3:02.65 | 0 | 13714
2 | 3:02.65 | 3:25.13 | 13715 | 29102
3 | 6:28.03 | 2:37.72 | 29103 | 40949
4 | 9:06.00 | 4:17.45 | 40950 | 60269
5 | 13:23.45 | 6:27.45 | 60270 | 89339
6 | 19:51.15 | 4:28.03 | 89340 | 109442
7 | 24:19.18 | 2:46.55 | 109443 | 121947
8 | 27:05.73 | 5:07.35 | 121948 | 145007
9 | 32:13.33 | 7:35.05 | 145008 | 179137

Характеристики диапазона извлечения и сообщения об ошибках

Выбранный диапазон

Имя файла D:\uTorrent.compl\Uriah Heep – Studio Albums 1970 – 1977 ( Japan 1st & 2nd Press Rare )\Demons And Wizards 1972 ( 1989, Japan 2nd Press, Teichiku 18DN-54 )\Uriah Heep – Demons And Wizards.wav

Пиковый уровень 100.0 %
Качество диапазона 100.0 %
CRC теста 295C090E
CRC копии 295C090E
Копирование… OK

Ошибок не произошло

AccurateRip: сводка

Трек 1 нет в базе данных
Трек 2 нет в базе данных
Трек 3 нет в базе данных
Трек 4 нет в базе данных
Трек 5 нет в базе данных
Трек 6 нет в базе данных
Трек 7 нет в базе данных
Трек 8 нет в базе данных
Трек 9 нет в базе данных

Ни одного трека нет в базе AccurateRip

Конец отчёта

REM GENRE “Hard Rock”
REM DATE 1972
REM DISCID 75095409
REM COMMENT “ExactAudioCopy v0.99pb5”
PERFORMER “Uriah Heep”
TITLE “Demons And Wizards”
FILE “Uriah Heep – Demons And Wizards.flac” WAVE
TRACK 01 AUDIO
TITLE “The Wizard”
PERFORMER “Uriah Heep”
INDEX 01 00:00:00
TRACK 02 AUDIO
TITLE “Traveller In Time”
PERFORMER “Uriah Heep”
INDEX 00 03:00:60
INDEX 01 03:02:65
TRACK 03 AUDIO
TITLE “Easy Livin'”
PERFORMER “Uriah Heep”
INDEX 00 06:26:40
INDEX 01 06:28:03
TRACK 04 AUDIO
TITLE “Poet’s Justice”
PERFORMER “Uriah Heep”
INDEX 00 09:05:00
INDEX 01 09:06:00
TRACK 05 AUDIO
TITLE “Circle Of Hands”
PERFORMER “Uriah Heep”
INDEX 00 13:21:53
INDEX 01 13:23:45
TRACK 06 AUDIO
TITLE “Rainbow Demon”
PERFORMER “Uriah Heep”
INDEX 00 19:50:05
INDEX 01 19:51:15
TRACK 07 AUDIO
TITLE “All My Life”
PERFORMER “Uriah Heep”
INDEX 00 24:17:70
INDEX 01 24:19:18
TRACK 08 AUDIO
TITLE “Paradise”
PERFORMER “Uriah Heep”
INDEX 01 27:05:73
TRACK 09 AUDIO
TITLE “The Spell”
PERFORMER “Uriah Heep”
INDEX 01 32:13:33


Leave a Reply

Your email address will not be published. Required fields are marked *

This site uses Akismet to reduce spam. Learn how your comment data is processed.