Uriah Heep – Conquest (Reissue)




Artist: Uriah Heep
Year: 1980/1990
Genre: Rock
Notes: Discogs
Add. Notes: Reissue
Cover incl.: Yes
Encoder: FLAC
Bitrate: ~900 kBit/s (44.1 kHz/16 Bit/s)
Log & Cue incl.: Yes
Size: 331,56 MB
Password: “slam” (without ” “)


All Downloads/Hosters are compatible

Download 1
Turbobit.net
KatFile.com
Rapidgator.net
ddl.to
Download 2
Turbobit.net
KatFile.com
Rapidgator.net
ddl.to

Tracklist:

1 - No Return - 6:02
2 - Imagination - 5:49
3 - Feelings - 5:25
4 - Fools - 5:03
5 - Carry On - 3:56
6 - Won't Have To Wait Too Long - 4:54
7 - Out On The Street - 5:56
8 - It Ain't Easy - 5:44

EAC-Log, CUE-Sheed & NFO:

Click to open spoiler
Exact Audio Copy V1.0 beta 2 from 29. April 2011

EAC extraction logfile from 26. July 2011, 16:48

Uriah Heep / Conquest

Used drive : Optiarc DVD RW AD-7240S Adapter: 1 ID: 0

Read mode : Secure
Utilize accurate stream : Yes
Defeat audio cache : Yes
Make use of C2 pointers : No

Read offset correction : 48
Overread into Lead-In and Lead-Out : No
Fill up missing offset samples with silence : Yes
Delete leading and trailing silent blocks : No
Null samples used in CRC calculations : Yes
Used interface : Native Win32 interface for Win NT & 2000

Used output format : User Defined Encoder
Selected bitrate : 1024 kBit/s
Quality : High
Add ID3 tag : Yes
Command line compressor : C:\Program Files\Exact Audio Copy\Flac\flac.exe
Additional command line options : -6 -V -T “ARTIST=%artist%” -T “TITLE=%title%” -T “ALBUM=%albumtitle%” -T “DATE=%year%” -T “TRACKNUMBER=%tracknr%” -T “GENRE=%genre%” -T “COMMENT=%comment%” %source% -o %dest%

TOC of the extracted CD

Track | Start | Length | Start sector | End sector
———————————————————
1 | 0:00.33 | 6:02.07 | 33 | 27189
2 | 6:02.40 | 5:49.30 | 27190 | 53394
3 | 11:51.70 | 5:25.68 | 53395 | 77837
4 | 17:17.63 | 5:03.00 | 77838 | 100562
5 | 22:20.63 | 3:56.20 | 100563 | 118282
6 | 26:17.08 | 4:54.65 | 118283 | 140397
7 | 31:11.73 | 5:56.55 | 140398 | 167152
8 | 37:08.53 | 5:44.57 | 167153 | 193009

Range status and errors

Selected range

Filename E:\music\Uriah Heep\1980. Conquest\Uriah Heep – Conquest.wav

Peak level 100.0 %
Extraction speed 3.6 X
Range quality 100.0 %
Test CRC 1689A73B
Copy CRC 1689A73B
Copy OK

No errors occurred

AccurateRip summary

Track 1 accurately ripped (confidence 2) [206B7BB6] (AR v2)
Track 2 accurately ripped (confidence 2) [5F87BFBE] (AR v2)
Track 3 accurately ripped (confidence 2) [C66C09CE] (AR v2)
Track 4 accurately ripped (confidence 2) [3F503AF3] (AR v2)
Track 5 accurately ripped (confidence 2) [719B2FFD] (AR v2)
Track 6 accurately ripped (confidence 2) [16EEB3DC] (AR v2)
Track 7 accurately ripped (confidence 2) [E7E27486] (AR v2)
Track 8 accurately ripped (confidence 2) [97F40068] (AR v2)

All tracks accurately ripped

End of status report

==== Log checksum 8B74FAE48B99FA495D1A69327AB14172BA3BB6C850467BB0AFAE315E4F279A7E ====

REM GENRE Rock
REM DATE 1980
REM DISCID 610A0D08
REM COMMENT “ExactAudioCopy v1.0b2”
PERFORMER “Uriah Heep”
TITLE “Conquest”
FILE “Uriah Heep – Conquest.flac” WAVE
TRACK 01 AUDIO
TITLE “No Return”
PERFORMER “Uriah Heep”
INDEX 00 00:00:00
INDEX 01 00:00:33
TRACK 02 AUDIO
TITLE “Imagination”
PERFORMER “Uriah Heep”
INDEX 00 06:02:15
INDEX 01 06:02:40
TRACK 03 AUDIO
TITLE “Feelings”
PERFORMER “Uriah Heep”
INDEX 00 11:49:38
INDEX 01 11:51:70
TRACK 04 AUDIO
TITLE “Fools”
PERFORMER “Uriah Heep”
INDEX 00 17:16:13
INDEX 01 17:17:63
TRACK 05 AUDIO
TITLE “Carry On”
PERFORMER “Uriah Heep”
INDEX 00 22:19:58
INDEX 01 22:20:63
TRACK 06 AUDIO
TITLE “Won’t Have To Wait Too Long”
PERFORMER “Uriah Heep”
INDEX 01 26:17:08
TRACK 07 AUDIO
TITLE “Out On The Street”
PERFORMER “Uriah Heep”
INDEX 00 31:09:18
INDEX 01 31:11:73
TRACK 08 AUDIO
TITLE “It Ain’t Easy”
PERFORMER “Uriah Heep”
INDEX 00 37:05:63
INDEX 01 37:08:53


Leave a Reply

Your email address will not be published. Required fields are marked *

Enter the text from the image below
 

This site uses Akismet to reduce spam. Learn how your comment data is processed.