Uriah Heep – Collection




[Total: 0    Average: 0/5]

Artist: Uriah Heep
Year: 1988
Genre: Rock
Notes: Discogs
Add. Notes:
Cover incl.: Yes
Encoder: FLAC
Bitrate: ~800 kBit/s (44.1 kHz/16 Bit/s)
Log & Cue incl.: Yes
Size: 371 MB
Password: “slam” (without ” “)


All Downloads/Hosters are compatible

Download 1
Share-online.biz
KatFile.com
Rapidgator.net
Mexa.sh
Download 2
Share-online.biz
KatFile.com
Rapidgator.net
Mexa.sh

Tracklist:

1 - That's The Way That It - 03:53
2 - So Tired - 03:38
3 - Free Me - 03:35
4 - One Way Or Another - 04:37
5 - Too Scared To Run - 03:49
6 - Lady In Black - 04:43
7 - Gypsy - 06:38
8 - Keep On Riding - 03:43
9 - Sweet Loraine - 04:15
10 - Roller - 04:41
11 - Free 'N' Easy - 03:06
12 - Love Machine - 03:39
13 - Rock & Roll Medley - 08:43

EAC-Log, CUE-Sheed & NFO:

Click to open spoiler
Exact Audio Copy V1.0 beta 3 from 29. August 2011

EAC extraction logfile from 9. September 2013, 18:23

Uriah Heep / Compilation (Collection)

Used drive : SONY BD RW BDX-S600U Adapter: 1 ID: 1

Read mode : Secure
Utilize accurate stream : Yes
Defeat audio cache : Yes
Make use of C2 pointers : No

Read offset correction : 48
Overread into Lead-In and Lead-Out : No
Fill up missing offset samples with silence : Yes
Delete leading and trailing silent blocks : No
Null samples used in CRC calculations : Yes
Used interface : Native Win32 interface for Win NT & 2000

Used output format : User Defined Encoder
Selected bitrate : 128 kBit/s
Quality : High
Add ID3 tag : No
Command line compressor : C:\Program Files (x86)\Exact Audio Copy\Flac\flac.exe
Additional command line options : -V -8 -T “Date=%year%” -T “Genre=%genre%” %source%

TOC of the extracted CD

Track | Start | Length | Start sector | End sector
———————————————————
1 | 0:00.00 | 4:08.08 | 0 | 18607
2 | 4:08.08 | 3:38.60 | 18608 | 35017
3 | 7:46.68 | 3:35.57 | 35018 | 51199
4 | 11:22.50 | 4:37.63 | 51200 | 72037
5 | 16:00.38 | 3:49.17 | 72038 | 89229
6 | 19:49.55 | 4:42.60 | 89230 | 110439
7 | 24:32.40 | 6:38.60 | 110440 | 140349
8 | 31:11.25 | 3:43.05 | 140350 | 157079
9 | 34:54.30 | 4:16.18 | 157080 | 176297
10 | 39:10.48 | 4:41.00 | 176298 | 197372
11 | 43:51.48 | 3:05.72 | 197373 | 211319
12 | 46:57.45 | 3:37.60 | 211320 | 227654
13 | 50:35.30 | 8:45.28 | 227655 | 267057

Range status and errors

Selected range

Filename D:\Uriah Heep – Discography\Compilations\1988. Collection\1988. Collection (Legacy Rec.,LLMCD 3019,Sweden)\Uriah Heep – Compilation (Collection).wav

Peak level 81.3 %
Extraction speed 6.8 X
Range quality 100.0 %
Test CRC C2A685F0
Copy CRC C2A685F0
Copy OK

No errors occurred

AccurateRip summary

Track 1 not present in database
Track 2 not present in database
Track 3 not present in database
Track 4 not present in database
Track 5 not present in database
Track 6 not present in database
Track 7 not present in database
Track 8 not present in database
Track 9 not present in database
Track 10 not present in database
Track 11 not present in database
Track 12 not present in database
Track 13 not present in database

None of the tracks are present in the AccurateRip database

End of status report

—- CUETools DB Plugin V2.1.3

[CTDB TOCID: tAg1P1fN7t_38s0nxrGWkz8t94A-] found, Submit result: tAg1P1fN7t_38s0nxrGWkz8t94A- has been confirmed
[ebae8e25] (1/1) Accurately ripped

==== Log checksum 49A96ADCCD04FDE06C5BF13610313DAAB9F54A9C183C9D29BC7D3C0457FBAFD9 ====

REM GENRE Rock
REM DATE 1988
REM DISCID B90DE80D
REM COMMENT “ExactAudioCopy v1.0b3”
PERFORMER “Uriah Heep”
TITLE “Compilation (Collection)”
FILE “Uriah Heep – Compilation (Collection).flac” WAVE
TRACK 01 AUDIO
TITLE “That’s The Way That It Is”
PERFORMER “Uriah Heep”
INDEX 01 00:00:00
TRACK 02 AUDIO
TITLE “So Tired”
PERFORMER “Uriah Heep”
INDEX 01 04:08:08
TRACK 03 AUDIO
TITLE “Free Me”
PERFORMER “Uriah Heep”
INDEX 01 07:46:68
TRACK 04 AUDIO
TITLE “One Way Or Another”
PERFORMER “Uriah Heep”
INDEX 00 11:20:45
INDEX 01 11:22:50
TRACK 05 AUDIO
TITLE “Too Scared To Run”
PERFORMER “Uriah Heep”
INDEX 00 15:58:73
INDEX 01 16:00:38
TRACK 06 AUDIO
TITLE “Lady In Black”
PERFORMER “Uriah Heep”
INDEX 00 19:48:68
INDEX 01 19:49:55
TRACK 07 AUDIO
TITLE “Gypsy”
PERFORMER “Uriah Heep”
INDEX 01 24:32:40
TRACK 08 AUDIO
TITLE “Keep On Ridin'”
PERFORMER “Uriah Heep”
INDEX 01 31:11:25
TRACK 09 AUDIO
TITLE “Sweet Loraine”
PERFORMER “Uriah Heep”
INDEX 00 34:53:13
INDEX 01 34:54:30
TRACK 10 AUDIO
TITLE “Roller”
PERFORMER “Uriah Heep”
INDEX 00 39:09:48
INDEX 01 39:10:48
TRACK 11 AUDIO
TITLE “Free n’ Easy”
PERFORMER “Uriah Heep”
INDEX 01 43:51:48
TRACK 12 AUDIO
TITLE “Love Machine”
PERFORMER “Uriah Heep”
INDEX 00 46:56:70
INDEX 01 46:57:45
TRACK 13 AUDIO
TITLE “Rock & Roll Medley”
PERFORMER “Uriah Heep”
INDEX 01 50:35:30


Spread the Download

Leave a Reply

Your email address will not be published. Required fields are marked *

Enter the text from the image below
 

This site uses Akismet to reduce spam. Learn how your comment data is processed.