Uriah Heep – Celebration – Forty Years Of Rock




No Cover available

Artist: Uriah Heep
Year: 2009
Genre: Rock
Notes: Discogs
Add. Notes:
Watch Songs on: YouTube
Cover incl.: Yes
Encoder: FLAC
Bitrate: ~1000 kBit/s (44.1 kHz/16 Bit/s)
Log & Cue incl.: Yes/Yes
Size: 545 MB
Password: “slam” (without ” “)


All Downloads/Hosters are compatible

Download 1
KatFile.com
Turbobit.net
Rapidgator.net
FileFactory.com
Download 2
KatFile.com
Turbobit.net
Rapidgator.net
FileFactory.com

Tracklist:

01 Only Human 
02 Bird Of Prey 
03 Sunrise 
04 Stealin' 
05 Corridors Of Madness 
06 Between Two Worlds 
07 The Wizard 
08 Free Me 
09 Free 'n' Easy 
10 Gypsy 
11 Look At Yourself 
12 July Morning 
13 Easy Livin' 
14 Lady In Black

EAC-Log, CUE-Sheed & NFO:

Click to open spoiler
Exact Audio Copy V1.0 beta 3 from 29. August 2011

EAC extraction logfile from 5. November 2013, 14:32

Uriah Heep / Celebration

Used drive : SONY BD RW BDX-S600U Adapter: 2 ID: 0

Read mode : Secure
Utilize accurate stream : Yes
Defeat audio cache : Yes
Make use of C2 pointers : No

Read offset correction : 48
Overread into Lead-In and Lead-Out : No
Fill up missing offset samples with silence : Yes
Delete leading and trailing silent blocks : No
Null samples used in CRC calculations : Yes
Used interface : Native Win32 interface for Win NT & 2000

Used output format : User Defined Encoder
Selected bitrate : 128 kBit/s
Quality : High
Add ID3 tag : No
Command line compressor : C:\Program Files (x86)\Exact Audio Copy\Flac\flac.exe
Additional command line options : -V -8 -T “Date=%year%” -T “Genre=%genre%” %source%

TOC of the extracted CD

Track | Start | Length | Start sector | End sector
———————————————————
1 | 0:00.00 | 3:19.21 | 0 | 14945
2 | 3:19.21 | 3:58.01 | 14946 | 32796
3 | 7:17.22 | 4:20.33 | 32797 | 52329
4 | 11:37.55 | 4:38.40 | 52330 | 73219
5 | 16:16.20 | 5:19.42 | 73220 | 97186
6 | 21:35.62 | 6:07.53 | 97187 | 124764
7 | 27:43.40 | 3:12.52 | 124765 | 139216
8 | 30:56.17 | 3:25.49 | 139217 | 154640
9 | 34:21.66 | 2:32.51 | 154641 | 166091
10 | 36:54.42 | 4:32.49 | 166092 | 186540
11 | 41:27.16 | 3:43.70 | 186541 | 203335
12 | 45:11.11 | 8:45.57 | 203336 | 242767
13 | 53:56.68 | 2:54.07 | 242768 | 255824
14 | 56:51.00 | 5:30.45 | 255825 | 280619

Range status and errors

Selected range

Filename D:\Uriah Heep – Discography\Studio\2009. Celebration – Forty Years Of Rock\Uriah Heep – Celebration.wav

Peak level 97.7 %
Extraction speed 15.4 X
Range quality 100.0 %
Test CRC 5D614374
Copy CRC 5D614374
Copy OK

No errors occurred

AccurateRip summary

Track 1 accurately ripped (confidence 11) [33D33CC6] (AR v2)
Track 2 accurately ripped (confidence 11) [2354F03E] (AR v2)
Track 3 accurately ripped (confidence 11) [15807421] (AR v2)
Track 4 accurately ripped (confidence 11) [4214CCD4] (AR v2)
Track 5 accurately ripped (confidence 11) [BECB28A4] (AR v2)
Track 6 accurately ripped (confidence 11) [53FF8F17] (AR v2)
Track 7 accurately ripped (confidence 11) [64AE3A3A] (AR v2)
Track 8 accurately ripped (confidence 11) [E0894DE3] (AR v2)
Track 9 accurately ripped (confidence 11) [A9C515B5] (AR v2)
Track 10 accurately ripped (confidence 11) [33D5B468] (AR v2)
Track 11 accurately ripped (confidence 11) [48C6E45D] (AR v2)
Track 12 accurately ripped (confidence 11) [0C657CAA] (AR v2)
Track 13 accurately ripped (confidence 11) [CF5BDF44] (AR v2)
Track 14 accurately ripped (confidence 11) [C4346286] (AR v2)

All tracks accurately ripped

End of status report

—- CUETools DB Plugin V2.1.3

[CTDB TOCID: nOiVvE2QcyaB7IlhRfzhF9kYWJE-] found, Submit result: nOiVvE2QcyaB7IlhRfzhF9kYWJE- has been confirmed
[28bd24f1] (25/25) Accurately ripped

==== Log checksum 37B674D446007630DDE9E67359BA03C962CDFCF9BDAE10F3492FBC6120DBECD2 ====

REM DISCID D50E9D0E
REM COMMENT “ExactAudioCopy v1.0b3”
PERFORMER “Uriah Heep”
TITLE “Celebration ”
FILE “Uriah Heep – Celebration.flac” WAVE
TRACK 01 AUDIO
TITLE “01 – Only Human”
PERFORMER “Uriah Heep”
ISRC DEH840900186
INDEX 01 00:00:00
TRACK 02 AUDIO
TITLE “02 – Bird Of Prey”
PERFORMER “Uriah Heep”
INDEX 01 03:19:21
TRACK 03 AUDIO
TITLE “03 – Sunrise”
PERFORMER “Uriah Heep”
INDEX 01 07:17:22
TRACK 04 AUDIO
TITLE “04 – Stealin'”
PERFORMER “Uriah Heep”
INDEX 01 11:37:55
TRACK 05 AUDIO
TITLE “05 – Corridors Of Madness”
PERFORMER “Uriah Heep”
INDEX 01 16:16:20
TRACK 06 AUDIO
TITLE “06 – Between Two Worlds”
PERFORMER “Uriah Heep”
INDEX 01 21:35:62
TRACK 07 AUDIO
TITLE “07 – The Wizard”
PERFORMER “Uriah Heep”
INDEX 01 27:43:40
TRACK 08 AUDIO
TITLE “08 – Free Me”
PERFORMER “Uriah Heep”
INDEX 01 30:56:17
TRACK 09 AUDIO
TITLE “09 – Free And Easy”
PERFORMER “Uriah Heep”
INDEX 01 34:21:66
TRACK 10 AUDIO
TITLE “10 – Gypsy”
PERFORMER “Uriah Heep”
INDEX 01 36:54:42
TRACK 11 AUDIO
TITLE “11 – Look At Yourself”
PERFORMER “Uriah Heep”
INDEX 01 41:27:16
TRACK 12 AUDIO
TITLE “12 – July Morning”
PERFORMER “Uriah Heep”
INDEX 01 45:11:11
TRACK 13 AUDIO
TITLE “13 – Easy Living”
PERFORMER “Uriah Heep”
INDEX 01 53:56:68
TRACK 14 AUDIO
TITLE “14 – Lady In Black”
PERFORMER “Uriah Heep”
INDEX 01 56:51:00


Leave a Reply

Your email address will not be published. Required fields are marked *

Enter the text from the image below
 

This site uses Akismet to reduce spam. Learn how your comment data is processed.