Uriah Heep – Abominog




Artist: Uriah Heep
Year: 1982
Genre: Rock
Notes: Discogs
Add. Notes:
Cover incl.: Yes
Encoder: FLAC
Bitrate: ~900 kBit/s (44.1 kHz/16 Bit/s)
Log & Cue incl.: Yes
Size: 331,56 MB
Password: “slam” (without ” “)


All Downloads/Hosters are compatible

Download 1
Turbobit.net
NitroFlare.com
KatFile.com
Rapidgator.net
Download 2
Turbobit.net
NitroFlare.com
KatFile.com
Rapidgator.net

Tracklist:

1. Too Scared To Run 	
2. Chasing Shadows 	
3. On The Rebound 	
4. Hot Night In A Cold Town 	
5. Running All Night (With The Lion) 	
6. That's The Way That It Is 	
7. Prisoner 	
8. Hot Persuasion 	
9. Sell Your Soul 	
10. Think It Over

EAC-Log, CUE-Sheed & NFO:

Click to open spoiler
Exact Audio Copy V1.0 beta 3 from 29. August 2011

EAC extraction logfile from 24. July 2013, 19:29

Uriah Heep / Abominog (Bronze 254 532)

Used drive : SONY BD RW BDX-S600U Adapter: 2 ID: 0

Read mode : Secure
Utilize accurate stream : Yes
Defeat audio cache : Yes
Make use of C2 pointers : No

Read offset correction : 48
Overread into Lead-In and Lead-Out : No
Fill up missing offset samples with silence : Yes
Delete leading and trailing silent blocks : No
Null samples used in CRC calculations : Yes
Used interface : Native Win32 interface for Win NT & 2000

Used output format : User Defined Encoder
Selected bitrate : 128 kBit/s
Quality : High
Add ID3 tag : No
Command line compressor : C:\Program Files\Exact Audio Copy\Flac\flac.exe
Additional command line options : -V -8 -T “Date=%year%” -T “Genre=%genre%” %source%

TOC of the extracted CD

Track | Start | Length | Start sector | End sector
———————————————————
1 | 0:00.33 | 3:48.65 | 33 | 17197
2 | 3:49.23 | 4:39.42 | 17198 | 38164
3 | 8:28.65 | 3:14.55 | 38165 | 52769
4 | 11:43.45 | 4:02.10 | 52770 | 70929
5 | 15:45.55 | 4:27.38 | 70930 | 90992
6 | 20:13.18 | 4:06.37 | 90993 | 109479
7 | 24:19.55 | 4:32.58 | 109480 | 129937
8 | 28:52.38 | 3:48.12 | 129938 | 147049
9 | 32:40.50 | 5:25.10 | 147050 | 171434
10 | 38:05.60 | 3:32.13 | 171435 | 187347

Range status and errors

Selected range

Filename H:\ALIK\Uriah Heep – Discography\Studio\1982. Abominog\1982. Abominog (Bronze Rec. 254 532, Germany)\Uriah Heep – Abominog (Bronze 254 532).wav

Peak level 98.0 %
Extraction speed 13.7 X
Range quality 99.9 %
Test CRC 046A2FC5
Copy CRC 046A2FC5
Copy OK

No errors occurred

AccurateRip summary

Track 1 accurately ripped (confidence 1) [940398F5] (AR v1)
Track 2 accurately ripped (confidence 1) [F19A5356] (AR v1)
Track 3 accurately ripped (confidence 1) [A7F593AD] (AR v1)
Track 4 accurately ripped (confidence 1) [457D395F] (AR v1)
Track 5 accurately ripped (confidence 1) [D6D304FF] (AR v1)
Track 6 accurately ripped (confidence 1) [D7117E64] (AR v1)
Track 7 accurately ripped (confidence 1) [56C16A34] (AR v1)
Track 8 accurately ripped (confidence 1) [97016D22] (AR v1)
Track 9 accurately ripped (confidence 1) [AA0F9589] (AR v1)
Track 10 accurately ripped (confidence 1) [1DD0D750] (AR v1)

All tracks accurately ripped

End of status report

—- CUETools DB Plugin V2.1.3

[CTDB TOCID: 0wLh_sbq97xSVoQr2JH3kM3P2Bs-] disk not present in database, Submit result: discs with pregaps not supported in this protocol version

==== Log checksum F4210D8A79D8190DEF9B0AC439FECF6FDEBF84C36C05D8A49FF7559DC8C4FA1A ====

REM GENRE Rock
REM DATE 1982
REM DISCID 7709C10A
REM COMMENT “ExactAudioCopy v1.0b3”
CATALOG 0000000000000
PERFORMER “Uriah Heep”
TITLE “Abominog (Bronze 254 532)”
FILE “Uriah Heep – Abominog (Bronze 254 532).flac” WAVE
TRACK 01 AUDIO
TITLE “Too Scared To Run”
PERFORMER “Uriah Heep”
INDEX 00 00:00:00
INDEX 01 00:00:33
TRACK 02 AUDIO
TITLE “Chasing Shadows”
PERFORMER “Uriah Heep”
INDEX 00 03:49:20
INDEX 01 03:49:23
TRACK 03 AUDIO
TITLE “On The Rebound”
PERFORMER “Uriah Heep”
INDEX 01 08:28:65
TRACK 04 AUDIO
TITLE “Hot Night In A Cold Town”
PERFORMER “Uriah Heep”
INDEX 00 11:43:43
INDEX 01 11:43:45
TRACK 05 AUDIO
TITLE “Running All Night (With The Lion)”
PERFORMER “Uriah Heep”
INDEX 00 15:44:05
INDEX 01 15:45:55
TRACK 06 AUDIO
TITLE “That’s The Way It Is”
PERFORMER “Uriah Heep”
INDEX 00 20:12:50
INDEX 01 20:13:18
TRACK 07 AUDIO
TITLE “Prisoner”
PERFORMER “Uriah Heep”
INDEX 00 24:19:53
INDEX 01 24:19:55
TRACK 08 AUDIO
TITLE “Hot Persuasion”
PERFORMER “Uriah Heep”
INDEX 00 28:52:35
INDEX 01 28:52:38
TRACK 09 AUDIO
TITLE “Sell Your Soul”
PERFORMER “Uriah Heep”
INDEX 00 32:40:48
INDEX 01 32:40:50
TRACK 10 AUDIO
TITLE “Think It Over”
PERFORMER “Uriah Heep”
INDEX 00 38:05:58
INDEX 01 38:05:60


Leave a Reply

Your email address will not be published. Required fields are marked *

Enter the text from the image below
 

This site uses Akismet to reduce spam. Learn how your comment data is processed.