Uriah Heep – Abominog (Remastered Deluxe Edition)




Artist: Uriah Heep
Year: 1982/2005
Genre: Rock
Notes: Discogs
Add. Notes: Remastered Deluxe Edition
Cover incl.: Yes
Encoder: FLAC
Bitrate: ~800 kBit/s (44.1 kHz/16 Bit/s)
Log & Cue incl.: Yes
Size: 454 MB
Password: “slam” (without ” “)


All Downloads/Hosters are compatible

Download 1
KatFile.com
Turbobit.net
Rapidgator.net
Turbobit.net
Download 2
KatFile.com
Turbobit.net
Rapidgator.net
Turbobit.net

Tracklist:

1 - Too Scared To Run - 3:47
2 - Chasing Shadows - 4:38
3 - On The Rebound - 3:13
4 - Hot Night In A Cold Town - 3:57
5 - Running All Night (With The 
Lion) - 4:24
6 - That's The Way That It Is - 4:04
7 - Prisoner - 4:27
8 - Hot Persuasion - 3:45
9 - Sell Your Soul - 5:22
10 - Think It Over - 3:33
Bonus Tracks
11 - Son Of A Bitch (From Abominog 
Junior EP) - 
12 - Tin Soldier (From Abominog 
Junior EP) - 
13 - Think It Over (Video 
Soundtrack) - 
14 - Too Scared To Run (Live) - 
15 - Sell Your Soul (Live) - 
16 - That's The Way That It Is (Live)

EAC-Log, CUE-Sheed & NFO:

Click to open spoiler
Exact Audio Copy V1.0 beta 3 from 29. August 2011

EAC extraction logfile from 22. October 2013, 19:51

Uriah Heep / Abominog

Used drive : SONY BD RW BDX-S600U Adapter: 2 ID: 0

Read mode : Secure
Utilize accurate stream : Yes
Defeat audio cache : Yes
Make use of C2 pointers : No

Read offset correction : 48
Overread into Lead-In and Lead-Out : No
Fill up missing offset samples with silence : Yes
Delete leading and trailing silent blocks : No
Null samples used in CRC calculations : Yes
Used interface : Native Win32 interface for Win NT & 2000

Used output format : User Defined Encoder
Selected bitrate : 128 kBit/s
Quality : High
Add ID3 tag : No
Command line compressor : C:\Program Files (x86)\Exact Audio Copy\Flac\flac.exe
Additional command line options : -V -8 -T “Date=%year%” -T “Genre=%genre%” %source%

TOC of the extracted CD

Track | Start | Length | Start sector | End sector
———————————————————
1 | 0:00.00 | 3:49.12 | 0 | 17186
2 | 3:49.12 | 4:39.43 | 17187 | 38154
3 | 8:28.55 | 3:14.65 | 38155 | 52769
4 | 11:43.45 | 4:03.15 | 52770 | 71009
5 | 15:46.60 | 4:28.50 | 71010 | 91159
6 | 20:15.35 | 4:06.47 | 91160 | 109656
7 | 24:22.07 | 4:33.10 | 109657 | 130141
8 | 28:55.17 | 3:48.33 | 130142 | 147274
9 | 32:43.50 | 5:26.36 | 147275 | 171760
10 | 38:10.11 | 3:36.31 | 171761 | 187991
11 | 41:46.42 | 4:07.37 | 187992 | 206553
12 | 45:54.04 | 3:54.41 | 206554 | 224144
13 | 49:48.45 | 3:17.08 | 224145 | 238927
14 | 53:05.53 | 4:18.74 | 238928 | 258351
15 | 57:24.52 | 5:43.50 | 258352 | 284126
16 | 63:08.27 | 3:58.64 | 284127 | 302040

Range status and errors

Selected range

Filename D:\Uriah Heep – Discography\Studio\1982. Abominog\1982. Abominog Expanded De-luxe Edition (Sanctuary SMRCD 185, EU)\Uriah Heep – Abominog.wav

Peak level 89.8 %
Extraction speed 6.7 X
Range quality 100.0 %
Test CRC 13B4057C
Copy CRC 13B4057C
Copy OK

No errors occurred

AccurateRip summary

Track 1 accurately ripped (confidence 8) [A422CC97] (AR v2)
Track 2 accurately ripped (confidence 8) [CCB8FCA0] (AR v2)
Track 3 accurately ripped (confidence 8) [97A13D59] (AR v2)
Track 4 accurately ripped (confidence 8) [4C924772] (AR v2)
Track 5 accurately ripped (confidence 8) [E426923E] (AR v2)
Track 6 accurately ripped (confidence 8) [C50BED00] (AR v2)
Track 7 accurately ripped (confidence 8) [C07EB7F4] (AR v2)
Track 8 accurately ripped (confidence 8) [7E628273] (AR v2)
Track 9 accurately ripped (confidence 8) [6C1DDBC6] (AR v2)
Track 10 accurately ripped (confidence 8) [B1B465E4] (AR v2)
Track 11 accurately ripped (confidence 8) [DAF79E35] (AR v2)
Track 12 accurately ripped (confidence 8) [12C8C032] (AR v2)
Track 13 accurately ripped (confidence 8) [A1FCF268] (AR v2)
Track 14 accurately ripped (confidence 8) [F327E608] (AR v2)
Track 15 accurately ripped (confidence 8) [F0807887] (AR v2)
Track 16 accurately ripped (confidence 8) [762AD7ED] (AR v2)

All tracks accurately ripped

End of status report

—- CUETools DB Plugin V2.1.3

[CTDB TOCID: o9gO15CYfGgrEyL1lI6JUu_TJ1M-] found, Submit result: o9gO15CYfGgrEyL1lI6JUu_TJ1M- has been confirmed
[d1da7677] (22/22) Accurately ripped

==== Log checksum C5AB5582C4BED602FE90EC846C8BA56C6E3964BC4F8613079C2BDED3E1A13EB0 ====

REM DATE 1982
REM DISCID ED0FBB10
REM COMMENT “ExactAudioCopy v1.0b3”
PERFORMER “Uriah Heep”
TITLE “Abominog”
FILE “Uriah Heep – Abominog.flac” WAVE
TRACK 01 AUDIO
TITLE “Too Scared to Run”
PERFORMER “Uriah Heep”
INDEX 01 00:00:00
TRACK 02 AUDIO
TITLE “Chasing Shadows”
PERFORMER “Uriah Heep”
INDEX 01 03:49:12
TRACK 03 AUDIO
TITLE “On the Rebound”
PERFORMER “Uriah Heep”
INDEX 01 08:28:55
TRACK 04 AUDIO
TITLE “Hot Night in a Cold Town”
PERFORMER “Uriah Heep”
INDEX 01 11:43:45
TRACK 05 AUDIO
TITLE “Running All Night (with the Lion)”
PERFORMER “Uriah Heep”
INDEX 01 15:46:60
TRACK 06 AUDIO
TITLE “That’s the Way That It Is”
PERFORMER “Uriah Heep”
INDEX 01 20:15:35
TRACK 07 AUDIO
TITLE “Prisoner”
PERFORMER “Uriah Heep”
INDEX 01 24:22:07
TRACK 08 AUDIO
TITLE “Hot Persuasion”
PERFORMER “Uriah Heep”
INDEX 01 28:55:17
TRACK 09 AUDIO
TITLE “Sell Your Soul”
PERFORMER “Uriah Heep”
INDEX 01 32:43:50
TRACK 10 AUDIO
TITLE “Think It Over”
PERFORMER “Uriah Heep”
INDEX 00 38:09:12
INDEX 01 38:10:11
TRACK 11 AUDIO
TITLE “Son of a Bitch (single b-side)”
PERFORMER “Uriah Heep”
INDEX 00 41:44:70
INDEX 01 41:46:42
TRACK 12 AUDIO
TITLE “Tin Soldier (single b-side)”
PERFORMER “Uriah Heep”
INDEX 00 45:53:31
INDEX 01 45:54:04
TRACK 13 AUDIO
TITLE “Think It Over (alternative version)”
PERFORMER “Uriah Heep”
INDEX 00 49:44:63
INDEX 01 49:48:45
TRACK 14 AUDIO
TITLE “Too Scared to Run (live version)”
PERFORMER “Uriah Heep”
INDEX 00 53:04:08
INDEX 01 53:05:53
TRACK 15 AUDIO
TITLE “Sell Your Soul (live version)”
PERFORMER “Uriah Heep”
INDEX 00 57:24:32
INDEX 01 57:24:52
TRACK 16 AUDIO
TITLE “That’s the Way That It Is (live version)”
PERFORMER “Uriah Heep”
INDEX 00 63:08:11
INDEX 01 63:08:27


Leave a Reply

Your email address will not be published. Required fields are marked *

Enter the text from the image below
 

This site uses Akismet to reduce spam. Learn how your comment data is processed.