Unheilig – Von Mensch Zu Mensch




Artist: Unheilig
Year: 2016
Genre: Rock
Notes: Discogs
Add. Notes: Ltd. Edition
Encoder: FLAC
Bitrate: ~1000 kBit/s (VBR)
Size: 561,28 MB
Hoster: Share-Online
Password: “slam” (without ” “)


Tracklist:

Auf Ein Letztes Mal (Intro) 4:28
Egoist 4:07
Von Mensch Zu Mensch 4:17
Einer Von Millionen 3:14
Mein Leben Ist Die Freiheit 4:37
Funkenschlag 4:31
Ich Würd' Dich Gern Besuchen 3:31
Ein Wahres Glück 4:49
Legenden 4:08
Heimatlos 3:58
Der Sturm 4:09
Tausend Rosen 3:23
Walfänger 6:19
Krieger 3:31
Ein Letztes Lied 4:28
Für Alle Zeit (Outro) 6:12

Click to open spoiler
Exact Audio Copy V1.1 from 23. June 2015

EAC extraction logfile from 4. November 2016, 17:54

Unheilig / Von Mensch Zu Mensch

Used drive : HP DVD Writer 1170d Adapter: 1 ID: 1

Read mode : Secure
Utilize accurate stream : Yes
Defeat audio cache : Yes
Make use of C2 pointers : No

Read offset correction : 6
Overread into Lead-In and Lead-Out : No
Fill up missing offset samples with silence : Yes
Delete leading and trailing silent blocks : No
Null samples used in CRC calculations : Yes
Used interface : Native Win32 interface for Win NT & 2000

Used output format : User Defined Encoder
Selected bitrate : 1024 kBit/s
Quality : Low
Add ID3 tag : No
Command line compressor : C:\Program Files (x86)\Exact Audio Copy\FLAC\FLAC.EXE
Additional command line options : -V -8 -T “Date=%year%” -T “Genre=%genre%” -T”COMMENT=Ripped by Ungern666″ -8 -V %source%

TOC of the extracted CD

Track | Start | Length | Start sector | End sector
———————————————————
1 | 0:00.00 | 4:28.35 | 0 | 20134
2 | 4:28.35 | 4:07.30 | 20135 | 38689
3 | 8:35.65 | 4:17.55 | 38690 | 58019
4 | 12:53.45 | 3:13.59 | 58020 | 72553
5 | 16:07.29 | 4:37.05 | 72554 | 93333
6 | 20:44.34 | 4:30.65 | 93334 | 113648
7 | 25:15.24 | 3:30.72 | 113649 | 129470
8 | 28:46.21 | 4:49.50 | 129471 | 151195
9 | 33:35.71 | 4:07.68 | 151196 | 169788
10 | 37:43.64 | 3:59.21 | 169789 | 187734
11 | 41:43.10 | 4:09.37 | 187735 | 206446
12 | 45:52.47 | 3:24.33 | 206447 | 221779
13 | 49:17.05 | 6:19.41 | 221780 | 250245
14 | 55:36.46 | 3:32.21 | 250246 | 266166
15 | 59:08.67 | 4:29.61 | 266167 | 286402
16 | 63:38.53 | 6:13.19 | 286403 | 314396

Range status and errors

Selected range

Filename C:\EAC\Ungern666\Unheilig – Von Mensch Zu Mensch.wav

Peak level 98.2 %
Extraction speed 6.6 X
Range quality 100.0 %
Test CRC 699836BF
Copy CRC 699836BF
Copy OK

No errors occurred

AccurateRip summary

Track 1 not present in database
Track 2 not present in database
Track 3 not present in database
Track 4 not present in database
Track 5 not present in database
Track 6 not present in database
Track 7 not present in database
Track 8 not present in database
Track 9 not present in database
Track 10 not present in database
Track 11 not present in database
Track 12 not present in database
Track 13 not present in database
Track 14 not present in database
Track 15 not present in database
Track 16 not present in database

None of the tracks are present in the AccurateRip database

End of status report

—- CUETools DB Plugin V2.1.6

[CTDB TOCID: MCwhY21Vm.bX8Cwbt5W8nGOSEP4-] disk not present in database
Submit result: MCwhY21Vm.bX8Cwbt5W8nGOSEP4- has been uploaded

==== Log checksum 1833F93C0832C956EC79756F74C91FEAA56AC3BD2586A163D85EF38BCBD74C91 ====

———————————

REM DATE 2016
REM DISCID EB105F10
REM COMMENT “ExactAudioCopy v1.1”
PERFORMER “Unheilig”
TITLE “Von Mensch Zu Mensch”
FILE “Unheilig – Von Mensch Zu Mensch.flac” WAVE
TRACK 01 AUDIO
TITLE “Auf Ein Letztes Mal (Intro)”
PERFORMER “Unheilig”
INDEX 01 00:00:00
TRACK 02 AUDIO
TITLE “Egoist”
PERFORMER “Unheilig”
INDEX 01 04:28:35
TRACK 03 AUDIO
TITLE “Von Mensch Zu Mensch”
PERFORMER “Unheilig”
INDEX 01 08:35:65
TRACK 04 AUDIO
TITLE “Einer Von Millionen”
PERFORMER “Unheilig”
INDEX 01 12:53:45
TRACK 05 AUDIO
TITLE “Mein Leben Ist Die Freiheit”
PERFORMER “Unheilig”
INDEX 01 16:07:29
TRACK 06 AUDIO
TITLE “Funkenschlag”
PERFORMER “Unheilig”
INDEX 01 20:44:34
TRACK 07 AUDIO
TITLE “Ich Wurd Dich Gern Besuchen”
PERFORMER “Unheilig”
INDEX 01 25:15:24
TRACK 08 AUDIO
TITLE “Ein Wahres Gluck”
PERFORMER “Unheilig”
INDEX 01 28:46:21
TRACK 09 AUDIO
TITLE “Legenden”
PERFORMER “Unheilig”
INDEX 01 33:35:71
TRACK 10 AUDIO
TITLE “Heimatlos”
PERFORMER “Unheilig”
INDEX 01 37:43:64
TRACK 11 AUDIO
TITLE “Der Sturm”
PERFORMER “Unheilig”
INDEX 01 41:43:10
TRACK 12 AUDIO
TITLE “Tausend Rosen”
PERFORMER “Unheilig”
INDEX 01 45:52:47
TRACK 13 AUDIO
TITLE “Walfanger”
PERFORMER “Unheilig”
INDEX 01 49:17:05
TRACK 14 AUDIO
TITLE “Krieger”
PERFORMER “Unheilig”
INDEX 01 55:36:46
TRACK 15 AUDIO
TITLE “Ein Letztes Lied”
PERFORMER “Unheilig”
INDEX 01 59:08:67
TRACK 16 AUDIO
TITLE “Fur Alle Zeit (Outro)”
PERFORMER “Unheilig”
INDEX 01 63:38:53

Leave a Reply

Your email address will not be published. Required fields are marked *

Enter the text from the image below
 

This site uses Akismet to reduce spam. Learn how your comment data is processed.