Unheilig – Lichter Der Stadt (Ltd. Edition)




Artist: Unheilig
Year: 2012
Genre: Rock
Notes: Discogs
Add. Notes: Ltd. Edition
Encoder: FLAC
Bitrate: ~800 kBit/s (VBR)
Size: 694,18 MB
Password: “slam” (without ” “)


Tracklist:

Lichter Der Stadt
1-1 Das Licht (Intro) 
1-2 Herzwerk 
1-3 So Wie Du Warst 
1-4 Tage Wie Gold 
1-5 Wie Wir Waren
Featuring – Andreas Bourani
1-6 Unsterblich 
1-7 Feuerland 
1-8 Lichter Der Stadt 
1-9 Ein Guter Weg 
1-10 Ein Großes Leben 
1-11 Brenne Auf 
1-12 Zeitreise
Featuring – Xavier Naidoo
1-13 Das Leben Ist Schön 
1-14 Eisenmann 
1-15 Vergessen 
1-16 Die Stadt (Instrumental) 
Produktionsdemos
2-1 Brenne Auf (Demoversion) 
2-2 Das Leben Ist Schön (Demoversion) 
2-3 So Wie Du Warst (Demoversion) 
2-4 Ein Großes Leben (Demoversion) 
2-5 Ein Guter Weg (Demoversion) 
2-6 Herzwerk (Demoversion) 
2-7 Wie Wir Waren (Demoversion) 
2-8 Unsterblich (Demoversion) 
2-9 Vergessen (Demoversion) 
2-10 Zeitreise (Demoversion)

EAC-Log, CUE-Sheed & NFO:

Click to open spoiler
Exact Audio Copy V1.0 beta 4 from 7. December 2014

EAC extraction logfile from 20. November 2017, 17:45

Unheilig / Lichter Der Stadt Disc 1: Lichter Der Stadt

Used drive : ASUS BW-12B1LT Adapter: 1 ID: 0

Read mode : Secure
Utilize accurate stream : Yes
Defeat audio cache : Yes
Make use of C2 pointers : No

Read offset correction : 6
Overread into Lead-In and Lead-Out : No
Fill up missing offset samples with silence : Yes
Delete leading and trailing silent blocks : No
Null samples used in CRC calculations : Yes
Used interface : Native Win32 interface for Win NT & 2000

Used output format : User Defined Encoder
Selected bitrate : 1024 kBit/s
Quality : High
Add ID3 tag : No
Command line compressor : C:\Program Files (x86)\Exact Audio Copy\Flac\flac.exe
Additional command line options : -8 -V -T “TITLE=%title%” -T “ARTIST=%artist%” -T “ALBUMARTIST=%albumartist%” -T “ALBUM=%albumtitle%” -T “DATE=%year%” -T “TRACKNUMBER=%tracknr%” -T “TRACKTOTAL=%numtracks%” -T “GENRE=%genre%” -T “COMMENT=%comment%” -T “PERFORMER=%albuminterpret%” -T “COMPOSER=%composer%” %source% -o %dest%

TOC of the extracted CD

Track | Start | Length | Start sector | End sector
———————————————————
1 | 0:00.00 | 3:36.12 | 0 | 16211
2 | 3:36.12 | 3:34.53 | 16212 | 32314
3 | 7:10.65 | 3:50.70 | 32315 | 49634
4 | 11:01.60 | 3:34.39 | 49635 | 65723
5 | 14:36.24 | 3:40.06 | 65724 | 82229
6 | 18:16.30 | 4:00.43 | 82230 | 100272
7 | 22:16.73 | 3:44.11 | 100273 | 117083
8 | 26:01.09 | 4:15.74 | 117084 | 136282
9 | 30:17.08 | 3:53.45 | 136283 | 153802
10 | 34:10.53 | 3:35.31 | 153803 | 169958
11 | 37:46.09 | 3:49.09 | 169959 | 187142
12 | 41:35.18 | 4:01.00 | 187143 | 205217
13 | 45:36.18 | 3:42.40 | 205218 | 221907
14 | 49:18.58 | 4:23.16 | 221908 | 241648
15 | 53:41.74 | 4:14.14 | 241649 | 260712
16 | 57:56.13 | 6:02.16 | 260713 | 287878

Range status and errors

Selected range

Filename F:\Unheilig\2012 – Lichter Der Stadt (CD Digipack 06025 2787961 1)\Disc 1 – Lichter Der Stadt\Unheilig – Lichter Der Stadt Disc 1- Lichter Der Stadt.wav

Peak level 100.0 %
Extraction speed 7.4 X
Range quality 100.0 %
Test CRC A02B8059
Copy CRC A02B8059
Copy OK

No errors occurred

End of status report

—- CUETools DB Plugin V2.1.4

[CTDB TOCID: gDkTz47CUBIfp9MgAREApFORoeQ-] found
Submit result: already submitted
Track | CTDB Status
1 | (812/819) Accurately ripped
2 | (814/819) Accurately ripped
3 | (812/819) Accurately ripped, or (1/819) differs in 10 samples @02:50:33, or (1/819) differs in 39 samples @03:37:43-03:37:44
4 | (814/819) Accurately ripped
5 | (813/819) Accurately ripped
6 | (815/819) Accurately ripped
7 | (815/819) Accurately ripped
8 | (813/819) Accurately ripped
9 | (812/819) Accurately ripped
10 | (813/819) Accurately ripped
11 | (810/819) Accurately ripped
12 | (812/819) Accurately ripped
13 | (813/819) Accurately ripped
14 | (811/819) Accurately ripped
15 | (809/819) Accurately ripped
16 | (809/819) Accurately ripped

==== Log checksum 0A3D7F6FC0B07F3AFC1ED63F0D65657F65E1F6CE4F39470A0B868D15EE102C7D ====

—————

Exact Audio Copy V1.0 beta 4 from 7. December 2014

EAC extraction logfile from 20. November 2017, 18:15

Unheilig / Lichter Der Stadt Disc 2: Produktionsdemos

Used drive : ASUS BW-12B1LT Adapter: 1 ID: 0

Read mode : Secure
Utilize accurate stream : Yes
Defeat audio cache : Yes
Make use of C2 pointers : No

Read offset correction : 6
Overread into Lead-In and Lead-Out : No
Fill up missing offset samples with silence : Yes
Delete leading and trailing silent blocks : No
Null samples used in CRC calculations : Yes
Used interface : Native Win32 interface for Win NT & 2000

Used output format : User Defined Encoder
Selected bitrate : 1024 kBit/s
Quality : High
Add ID3 tag : No
Command line compressor : C:\Program Files (x86)\Exact Audio Copy\Flac\flac.exe
Additional command line options : -8 -V -T “TITLE=%title%” -T “ARTIST=%artist%” -T “ALBUMARTIST=%albumartist%” -T “ALBUM=%albumtitle%” -T “DATE=%year%” -T “TRACKNUMBER=%tracknr%” -T “TRACKTOTAL=%numtracks%” -T “GENRE=%genre%” -T “COMMENT=%comment%” -T “PERFORMER=%albuminterpret%” -T “COMPOSER=%composer%” %source% -o %dest%

TOC of the extracted CD

Track | Start | Length | Start sector | End sector
———————————————————
1 | 0:00.00 | 3:36.63 | 0 | 16262
2 | 3:36.63 | 3:34.38 | 16263 | 32350
3 | 7:11.26 | 3:23.26 | 32351 | 47601
4 | 10:34.52 | 4:19.55 | 47602 | 67081
5 | 14:54.32 | 4:01.43 | 67082 | 85199
6 | 18:56.00 | 4:00.18 | 85200 | 103217
7 | 22:56.18 | 3:42.23 | 103218 | 119890
8 | 26:38.41 | 3:59.41 | 119891 | 137856
9 | 30:38.07 | 3:19.07 | 137857 | 152788
10 | 33:57.14 | 5:01.21 | 152789 | 175384

Range status and errors

Selected range

Filename F:\Unheilig\2012 – Lichter Der Stadt (CD Digipack 06025 2787961 1)\Disc 2 – Produktionsdemos\Unheilig – Lichter Der Stadt Disc 2- Produktionsdemos.wav

Peak level 98.8 %
Extraction speed 3.0 X
Range quality 100.0 %
Test CRC 135078E4
Copy CRC 135078E4
Copy OK

No errors occurred

End of status report

—- CUETools DB Plugin V2.1.4

[CTDB TOCID: igzyb53iThceVNfwlz0YqSGFTpc-] found
Submit result: igzyb53iThceVNfwlz0YqSGFTpc- has been confirmed
Track | CTDB Status
1 | (102/106) Accurately ripped
2 | (102/106) Accurately ripped
3 | (103/106) Accurately ripped
4 | (103/106) Accurately ripped
5 | (103/106) Accurately ripped
6 | (103/106) Accurately ripped
7 | (103/106) Accurately ripped
8 | (103/106) Accurately ripped
9 | (103/106) Accurately ripped
10 | (103/106) Accurately ripped

==== Log checksum 0DD1EC0C478C119AA9DC13AF79D5CA59739315FFE790A5EF06E1815D865347E9 ====

Leave a Reply

Your email address will not be published. Required fields are marked *

This site uses Akismet to reduce spam. Learn how your comment data is processed.